<?xml version="1.0" standalone="no"?>
<!DOCTYPE svg PUBLIC "-//W3C//DTD SVG 1.1//EN" "http://www.w3.org/Graphics/SVG/1.1/DTD/svg11.dtd" >
<svg xmlns="http://www.w3.org/2000/svg" xmlns:xlink="http://www.w3.org/1999/xlink" version="1.1">
<metadata>
Created by FontForge 20191125 at Mon Apr 16 08:22:21 2007
 By convertio
Copyright (c) 2002, 2006 Parachute :, www.parachute.gr.  All rights reserved.
</metadata>
<defs>
<font id="PFBeauSansPro-Bbook" horiz-adv-x="1818" >
  <font-face 
    font-family="PF BeauSans Pro Bbook"
    font-weight="500"
    font-stretch="normal"
    units-per-em="1000"
    panose-1="2 0 5 3 3 0 0 2 0 4"
    ascent="750"
    descent="-250"
    x-height="525"
    cap-height="701"
    bbox="-194.846 -293 1760 929"
    underline-thickness="60"
    underline-position="-160"
    unicode-range="U+0020-FB05"
  />
<missing-glyph horiz-adv-x="444" 
d="M0 700h444v-700h-444v700zM352 59l-130 237l-130 -237h260zM352 641h-260l130 -237zM59 117l128 233l-128 233v-466zM385 117v466l-129 -233z" />
    <glyph glyph-name="fj" unicode="fj" horiz-adv-x="568" 
d="M503 78q0 -72 -13.5 -123t-37 -85.5t-56 -55.5t-69.5 -34q-14 -4 -18 8l-20 60q-2 8 1 11.5t10 6.5q34 16 54.5 37t31.5 45.5t14.5 52t3.5 56.5v390h-210v-431q0 -11 -4 -13.5t-14 -2.5h-62q-10 0 -14 2.5t-4 13.5v431h-72q-11 0 -13.5 4.5t-2.5 11.5v26q0 8 3 12.5
t13 6.5l72 16v49q0 34 9.5 64t32 52.5t60 35.5t93.5 13q7 0 23 -1t37 -3t46.5 -6t51.5 -11q8 -2 9 -7t-1 -11l-11 -50q-3 -12 -17 -9q-18 4 -38 6.5t-38 4t-32 2.5t-21 1q-35 0 -56 -7.5t-32 -19t-14 -25.5t-3 -27v-50h290q10 0 14 -2.5t4 -13.5v-431v0z" />
    <glyph glyph-name="ffj" unicode="ffj" horiz-adv-x="860" 
d="M486 525h291q10 0 14 -2.5t4 -13.5v-431q0 -72 -13.5 -123t-37 -85.5t-56 -55.5t-69.5 -34q-14 -4 -18 8l-20 60q-2 8 1 11.5t10 6.5q34 16 54.5 37t31.5 45.5t14.5 52t3.5 56.5v390h-210v-431q0 -11 -4 -13.5t-14 -2.5h-62q-10 0 -14 2.5t-4 13.5v431h-194v-431
q0 -11 -4 -13.5t-14 -2.5h-62q-10 0 -14 2.5t-4 13.5v431h-72q-11 0 -13.5 4.5t-2.5 11.5v26q0 8 3 12.5t13 6.5l72 16v37q0 34 9.5 64t32 52.5t60 35.5t93.5 13q7 0 22.5 -0.5t36 -3t44.5 -6.5t50 -10q23 17 57 26.5t82 9.5q7 0 23 -1t37 -3t46.5 -6t51.5 -11q8 -2 9 -7
t-1 -11l-11 -50q-3 -12 -17 -9q-18 4 -38 6.5t-38 4t-32 2.5t-21 1q-35 0 -56 -7.5t-32 -19t-14.5 -25.5t-3.5 -27v-54zM195 525h193v52q0 32 7 57q-30 4 -57 6t-38 2q-35 0 -56 -7.5t-32 -19t-14 -25.5t-3 -27v-38z" />
    <glyph glyph-name="ff" unicode="ff" horiz-adv-x="636" 
d="M291 728q14 0 53.5 -3t87.5 -14q37 31 105 31q15 0 44.5 -2t60.5 -12q8 -2 9 -7t-1 -11l-11 -52q-3 -12 -17 -9q-21 4 -38.5 5t-31.5 1q-38 0 -52 -16.5t-14 -42.5v-71h121q11 0 13.5 -4t2.5 -12v-46q0 -7 -2.5 -11.5t-13.5 -4.5h-121v-431q0 -11 -4 -13.5t-14 -2.5h-63
q-10 0 -14 2.5t-4 13.5v431h-193v-431q0 -11 -4 -13.5t-14 -2.5h-62q-10 0 -14 2.5t-4 13.5v431h-72q-11 0 -13.5 4.5t-2.5 11.5v26q0 8 3 12.5t13 6.5l72 16v39q0 34 9.5 64t32 52.5t60 35.5t93.5 13zM387 594q0 22 3 42q-29 5 -54.5 6.5t-35.5 1.5q-35 0 -56 -7.5t-32 -19
t-14 -25.5t-3 -27v-40h192v69z" />
    <glyph glyph-name="fi" unicode="fi" horiz-adv-x="568" 
d="M422 0q-10 0 -14 2.5t-4 13.5v431h-210v-431q0 -11 -4 -13.5t-14 -2.5h-62q-10 0 -14 2.5t-4 13.5v431h-72q-11 0 -13.5 4.5t-2.5 11.5v26q0 8 3 12.5t13 6.5l72 16v47q0 34 9.5 64t32 52.5t60 35.5t93.5 13q7 0 23 -1t37 -3t46.5 -6t51.5 -11q8 -2 9 -7t-1 -11l-11 -50
q-3 -12 -17 -9q-18 4 -38 6.5t-38 4t-32 2.5t-21 1q-35 0 -56 -7.5t-32 -19t-14 -25.5t-3 -27v-48h292q11 0 13.5 -4t2.5 -12v-493q0 -11 -4 -13.5t-14 -2.5h-63v0z" />
    <glyph glyph-name="fl" unicode="fl" horiz-adv-x="615" 
d="M194 16q0 -11 -4 -13.5t-14 -2.5h-62q-10 0 -14 2.5t-4 13.5v431h-72q-11 0 -13.5 4.5t-2.5 11.5v26q0 8 3 12.5t13 6.5l72 16v49q0 34 9.5 64t32 52.5t60 35.5t93.5 13q7 0 21.5 -0.5t34 -2.5t41.5 -5t45 -9l53 12q10 0 14 -2.5t4 -13.5v-595q0 -27 7.5 -35.5t25.5 -8.5
q9 0 18.5 0.5t17.5 1.5t11 -1t4 -10l6 -44q1 -9 -0.5 -12.5t-10.5 -8.5q-19 -8 -42 -10t-40 -2q-53 0 -75 24.5t-22 78.5v549q-32 5 -62.5 7.5t-41.5 2.5q-35 0 -56 -7.5t-32 -19t-14 -25.5t-3 -27v-50h125q11 0 13.5 -4.5t2.5 -11.5v-46q0 -8 -2.5 -12t-13.5 -4h-126v-431z
" />
    <glyph glyph-name="ffi" unicode="ffi" horiz-adv-x="860" 
d="M714 0q-10 0 -14 2.5t-4 13.5v431h-210v-431q0 -11 -4 -13.5t-14 -2.5h-62q-10 0 -14 2.5t-4 13.5v431h-194v-431q0 -11 -4 -13.5t-14 -2.5h-62q-10 0 -14 2.5t-4 13.5v431h-72q-11 0 -13.5 4.5t-2.5 11.5v26q0 8 3 12.5t13 6.5l72 16v34q0 34 9.5 64t32 52.5t60 35.5
t93.5 13q7 0 22.5 -0.5t36 -3t44.5 -6.5t50 -10q23 17 57 26.5t82 9.5q7 0 23 -1t37 -3t46.5 -6t51.5 -11q8 -2 9 -7t-1 -11l-11 -50q-3 -12 -17 -9q-18 4 -38 6.5t-38 4t-32 2.5t-21 1q-35 0 -56 -7.5t-32 -19t-14.5 -25.5t-3.5 -27v-51h293q11 0 13.5 -4t2.5 -12v-493
q0 -11 -4 -13.5t-14 -2.5h-63zM195 525h193v49q0 32 7 57q-30 4 -57 6t-38 2q-35 0 -56 -7.5t-32 -19t-14 -25.5t-3 -27v-35z" />
    <glyph glyph-name="ffl" unicode="ffl" horiz-adv-x="907" 
d="M486 16q0 -11 -4 -13.5t-14 -2.5h-62q-10 0 -14 2.5t-4 13.5v431h-194v-431q0 -11 -4 -13.5t-14 -2.5h-62q-10 0 -14 2.5t-4 13.5v431h-72q-11 0 -13.5 4.5t-2.5 11.5v26q0 8 3 12.5t13 6.5l72 16v38q0 34 9.5 64t32 52.5t60 35.5t93.5 13q7 0 22.5 -0.5t36 -3t45 -6.5
t49.5 -10q23 17 57 26.5t82 9.5q7 0 21.5 -0.5t34 -2.5t41.5 -5t45 -9l53 12q10 0 14 -2.5t4 -13.5v-600q0 -27 7.5 -35.5t25.5 -8.5q9 0 18.5 0.5t17.5 1.5t11 -1t4 -10l6 -44q1 -9 -0.5 -12.5t-10.5 -8.5q-19 -8 -42 -10t-40 -2q-53 0 -75 24.5t-22 78.5v554
q-32 5 -62.5 7.5t-41.5 2.5q-35 0 -56 -7.5t-32 -19t-14.5 -25.5t-3.5 -27v-55h126q11 0 13.5 -4.5t2.5 -11.5v-46q0 -8 -2.5 -12t-13.5 -4h-126v-431zM195 525h193v53q0 32 7 57q-29 4 -57 6t-38 2q-35 0 -56 -7.5t-32 -19t-14 -25.5t-3 -27v-39z" />
    <glyph glyph-name="ft" unicode="ft" horiz-adv-x="679" 
d="M668 21q1 -6 0.5 -10.5t-9.5 -7.5q-31 -10 -63.5 -12t-47.5 -2q-79 0 -111 34t-32 106v318h-210v-431q0 -11 -4 -13.5t-14 -2.5h-63q-10 0 -14 2.5t-4 13.5v431h-72q-11 0 -13.5 4.5t-2.5 11.5v26q0 8 3 12.5t13 6.5l72 16v64q0 69 35.5 108.5t114.5 39.5q15 0 44.5 -2
t60.5 -12q8 -2 9 -7t-1 -11l-11 -52q-3 -12 -17 -9q-21 4 -38.5 5t-31.5 1q-38 0 -52 -16.5t-14 -42.5v-65h214l19 102q2 11 6.5 14t14.5 7l37 14q8 2 12.5 -0.5t4.5 -13.5v-123h105q11 0 13.5 -4.5t2.5 -11.5v-46q0 -8 -2.5 -12t-13.5 -4h-105v-312q0 -33 15 -46.5
t47 -13.5q13 0 37 2.5t39 4.5q10 2 13 -0.5t4 -8.5l10 -52v0z" />
    <glyph glyph-name=".notdef" horiz-adv-x="444" 
d="M0 700h444v-700h-444v700zM352 59l-130 237l-130 -237h260zM352 641h-260l130 -237zM59 117l128 233l-128 233v-466zM385 117v466l-129 -233z" />
    <glyph glyph-name=".null" horiz-adv-x="0" 
 />
    <glyph glyph-name="nonmarkingreturn" horiz-adv-x="333" 
 />
    <glyph glyph-name="space" unicode=" " horiz-adv-x="275" 
 />
    <glyph glyph-name="exclam" unicode="!" horiz-adv-x="275" 
d="M171 233q-1 -11 -5.5 -14.5t-18.5 -3.5h-23q-19 0 -20 15l-22 452q-1 6 3 12t14 6h76q11 0 15 -6t3 -12zM212 65q0 -31 -21 -52.5t-53 -21.5t-53 21t-21 53q0 31 21.5 52.5t52.5 21.5q32 0 53 -21t21 -53z" />
    <glyph glyph-name="quotedbl" unicode="&#x22;" horiz-adv-x="371" 
d="M143 451q-2 -11 -6 -14.5t-18 -3.5h-23q-19 0 -20 15l-25 237q-1 6 3 12t14 6h83q11 0 15 -6t3 -12zM294 451q-2 -11 -6 -14.5t-18 -3.5h-23q-19 0 -20 15l-26 237q0 6 4 12t14 6h83q11 0 15 -6t3 -12z" />
    <glyph glyph-name="numbersign" unicode="#" horiz-adv-x="595" 
d="M356 201l37 181h-140l-38 -181h141zM49 140q-14 0 -11 15l6 31q2 8 5 11.5t12 3.5h86l37 181h-89q-9 0 -11 3.5t-1 11.5l7 31q2 8 5 11.5t12 3.5h90l26 127q2 8 4.5 10.5t10.5 2.5h38q8 0 12.5 -2.5t2.5 -10.5l-26 -127h141l26 127q2 8 4.5 10.5t10.5 2.5h38
q8 0 12.5 -2.5t2.5 -10.5l-26 -127h83q9 0 12 -3.5t2 -11.5l-7 -31q-2 -8 -5 -11.5t-12 -3.5h-85l-38 -181h85q16 0 13 -15l-6 -31q-2 -8 -5 -11.5t-11 -3.5h-88l-26 -127q-2 -8 -4.5 -10.5t-10.5 -2.5h-39q-7 0 -11.5 2.5t-2.5 10.5l25 127h-140l-26 -127q-2 -8 -4.5 -10.5
t-10.5 -2.5h-39q-8 0 -12.5 2.5t-2.5 10.5l26 127h-85z" />
    <glyph glyph-name="dollar" unicode="$" horiz-adv-x="595" 
d="M363 -98q0 -11 -4 -13t-14 -2h-15q-9 0 -13.5 2t-4.5 13v858q0 11 4.5 13t13.5 2h15q10 0 14 -2t4 -13v-79q30 -4 61 -12t60 -22q12 -5 7 -16l-23 -63q-2 -7 -5 -8t-8 1q-51 17 -92 25v-212q32 -14 62 -30t53.5 -38t37.5 -52t14 -70q0 -42 -12.5 -74t-35 -55.5t-53 -38.5
t-66.5 -21v-93zM226 760q0 11 4.5 13t13.5 2h15q10 0 14 -2t4 -13v-858q0 -11 -4 -13t-14 -2h-15q-9 0 -13.5 2t-4.5 13v92q-42 5 -83.5 17t-78.5 32q-12 5 -5 20l24 59q6 12 18 7q29 -14 61 -23.5t64 -15.5v240q-70 31 -106 70t-36 101q0 66 36.5 112.5t105.5 63.5v83z
M433 179q0 32 -18.5 53.5t-51.5 39.5v-183q33 11 51.5 34t18.5 56zM182 509q0 -44 44 -73v141q-23 -11 -33.5 -29.5t-10.5 -38.5z" />
    <glyph glyph-name="percent" unicode="%" horiz-adv-x="900" 
d="M858 203q0 -47 -10.5 -85t-32.5 -66t-56 -43t-80 -15q-91 0 -134 56.5t-43 151.5q0 47 11 85.5t33 66t55.5 42.5t79.5 15q48 0 81.5 -15t55 -42t31 -65.5t9.5 -85.5zM776 202q0 27 -4.5 52.5t-16 45.5t-30 32t-46.5 12q-27 0 -45.5 -12t-29 -32t-15 -45.5t-4.5 -51.5
q0 -27 4.5 -52.5t15 -45.5t29 -32.5t47.5 -12.5q27 0 45.5 12.5t29.5 32.5t15.5 45.5t4.5 51.5zM390 470q0 -47 -10.5 -85t-32.5 -66t-56 -43t-80 -15q-91 0 -134 56.5t-43 151.5q0 47 11 85.5t33 66t55.5 42.5t79.5 15q48 0 81.5 -15t55 -42t31 -65.5t9.5 -85.5zM308 469
q0 27 -4.5 52.5t-16 45.5t-30 32t-46.5 12q-27 0 -45.5 -12t-29 -32t-15 -45.5t-4.5 -51.5q0 -27 4.5 -52.5t15 -45.5t29 -32.5t47.5 -12.5q27 0 45.5 12.5t29.5 32.5t15.5 45.5t4.5 51.5zM279 -6q-5 -9 -10 -12.5t-14 -3.5h-35q-8 0 -11.5 3.5t1.5 12.5l409 684q5 9 9 12.5
t13 3.5h39q5 0 9 -3.5t-1 -12.5z" />
    <glyph glyph-name="ampersand" unicode="&#x26;" horiz-adv-x="740" 
d="M405 170q-32 39 -64 79t-62 78q-23 -14 -43.5 -30.5t-36.5 -36t-25.5 -42t-9.5 -48.5q0 -52 26.5 -74.5t71.5 -22.5q20 0 40.5 8t39.5 21.5t35 31t28 36.5zM566 0q-9 0 -15 2t-12 9l-78 88q-18 -22 -39.5 -42t-47.5 -35.5t-56 -24.5t-66 -9q-86 0 -134 46t-48 127
q0 37 12.5 71t33.5 63.5t49 54t59 42.5q-14 16 -27.5 35.5t-23.5 40.5t-16 42t-6 41q0 37 13.5 66.5t36.5 50.5t54.5 32.5t66.5 11.5q36 0 66.5 -10.5t53 -30t35 -46t12.5 -59.5q0 -37 -12 -66.5t-31 -53.5t-43.5 -42.5t-48.5 -33.5q29 -39 52.5 -66.5t45.5 -54.5
q31 57 74 99.5t100 56.5q11 3 20.5 4.5t21.5 2.5q10 0 12 -9l9 -55q2 -7 -2.5 -10t-9.5 -4q-36 -6 -62 -21t-45 -36t-33.5 -46t-26.5 -52q14 -17 37 -44t46 -53q26 -31 56 -64q3 -4 2 -11t-9 -7h-76zM396 558q0 13 -4.5 26.5t-13.5 24t-22.5 17.5t-32.5 7q-36 0 -56.5 -21.5
t-20.5 -55.5q0 -16 5.5 -32.5t14 -33t19 -31t20.5 -26.5q14 9 30 21t29.5 27.5t22.5 34.5t9 42z" />
    <glyph glyph-name="quotesingle" unicode="'" horiz-adv-x="220" 
d="M143 451q-2 -11 -6 -14.5t-18 -3.5h-23q-19 0 -20 15l-25 237q-1 6 3 12t14 6h83q11 0 15 -6t3 -12z" />
    <glyph glyph-name="parenleft" unicode="(" horiz-adv-x="295" 
d="M239 -80q-9 -7 -17 1q-38 37 -73 80t-61.5 92.5t-42 106t-15.5 120.5q0 66 15.5 123.5t41.5 107.5t61 93t73 80q9 9 18 2l35 -24q5 -4 4.5 -7t-3.5 -7q-66 -78 -100.5 -164.5t-34.5 -197.5q0 -119 35.5 -206t99.5 -161q7 -8 0 -13z" />
    <glyph glyph-name="parenright" unicode=")" horiz-adv-x="300" 
d="M68 726q9 7 17 -1q38 -37 73 -80t61.5 -92.5t42 -106t15.5 -120.5q0 -66 -15.5 -123.5t-42 -107.5t-61 -93t-72.5 -80q-9 -9 -18 -2l-35 24q-5 4 -4.5 7t3.5 7q66 78 100.5 164.5t34.5 197.5q0 119 -35.5 206t-99.5 161q-7 8 0 13z" />
    <glyph glyph-name="asterisk" unicode="*" horiz-adv-x="484" 
d="M291 494l81 -97q7 -8 6 -12t-8 -9l-34 -26q-10 -8 -14.5 -7t-9.5 10l-65 109l-67 -111q-5 -9 -9.5 -9.5t-9.5 4.5l-39 30q-12 8 -3 20l82 98l-118 31q-15 4 -11 19l13 42q4 16 21 8l115 -48l-11 130q-1 5 2 8.5t11 3.5h47q9 0 11.5 -4t1.5 -9l-11 -129l116 49
q10 4 14 1.5t6 -8.5l14 -45q5 -15 -8 -17z" />
    <glyph glyph-name="plus" unicode="+" horiz-adv-x="595" 
d="M68 297q-11 0 -13.5 4t-2.5 14v59q0 9 2.5 13.5t13.5 4.5h181v185q0 11 4.5 13.5t13.5 2.5h62q10 0 14 -2.5t4 -13.5v-185h180q11 0 13.5 -4.5t2.5 -13.5v-59q0 -10 -2.5 -14t-13.5 -4h-180v-186q0 -11 -4 -13.5t-14 -2.5h-62q-9 0 -13.5 2.5t-4.5 13.5v186h-181v0z" />
    <glyph glyph-name="comma" unicode="," horiz-adv-x="251" 
d="M134 -108q-4 -11 -7 -14.5t-14 -3.5h-34q-22 0 -20 15l15 242q1 6 4.5 12t13.5 6h97q11 0 15.5 -6t2.5 -12z" />
    <glyph glyph-name="hyphen" unicode="-" horiz-adv-x="365" 
d="M66 232q-11 0 -13.5 4t-2.5 14v76q0 9 2.5 13.5t13.5 4.5h233q11 0 13.5 -4.5t2.5 -13.5v-76q0 -10 -2.5 -14t-13.5 -4h-233v0z" />
    <glyph glyph-name="period" unicode="." horiz-adv-x="275" 
d="M217 67q0 -33 -22.5 -56t-57.5 -23q-33 0 -56 22.5t-23 56.5t23 57t56 23q35 0 57.5 -22.5t22.5 -57.5z" />
    <glyph glyph-name="slash" unicode="/" horiz-adv-x="442" 
d="M116 -80q-5 -16 -23 -16h-62q-8 0 -12.5 3.5t-1.5 12.5l314 842q5 16 22 16h65q5 0 10 -3.5t2 -12.5l-314 -842v0z" />
    <glyph glyph-name="zero" unicode="0" horiz-adv-x="595" 
d="M563 337q0 -78 -15.5 -142t-48 -109.5t-83 -71t-120.5 -25.5q-68 0 -118 24.5t-82.5 70t-48.5 109.5t-16 142t16.5 142t49.5 110t83 71t118 25q72 0 122.5 -25t82 -70t46 -109t14.5 -142zM464 335q0 49 -8 97t-27.5 85t-51.5 60t-81 23q-48 0 -80 -22.5t-50.5 -59.5
t-26.5 -84.5t-8 -96.5q0 -50 7.5 -97.5t26.5 -85t51 -60.5t82 -23q48 0 80 23t51 60.5t27 85t8 95.5z" />
    <glyph glyph-name="one" unicode="1" horiz-adv-x="595" 
d="M489 18q0 -10 -2.5 -14t-13.5 -4h-337q-11 0 -13.5 4t-2.5 14v52q0 10 2.5 14t13.5 4h118v486l-114 -18q-10 -2 -13 1.5t-3 11.5v47q0 9 3 14t14 8l151 44q23 7 41 0.5t18 -30.5v-564h122q11 0 13.5 -4t2.5 -14v-52v0z" />
    <glyph glyph-name="two" unicode="2" horiz-adv-x="595" 
d="M134 0q-45 0 -62 17.5t-17 59.5q0 31 21 75.5t65 90.5q40 43 83 73.5t72 48.5q33 19 55 35.5t35.5 32t19.5 31.5t6 35q0 44 -34 68t-97 24q-38 0 -77.5 -13t-73.5 -39q-7 -5 -13.5 -5.5t-11.5 6.5l-35 46q-8 13 5 23q45 35 100 54.5t112 19.5q45 0 86 -11t72 -33
t49.5 -55.5t18.5 -78.5q0 -37 -11.5 -67t-33 -55.5t-52 -48t-68.5 -44.5q-60 -35 -113 -85t-76 -117h339q11 0 13.5 -4t2.5 -14v-52q0 -10 -2.5 -14t-13.5 -4h-364v0z" />
    <glyph glyph-name="three" unicode="3" horiz-adv-x="595" 
d="M269 -11q-60 0 -120 13.5t-107 52.5q-9 8 -2 20l33 50q9 14 27 2q37 -25 77 -36.5t82 -11.5q80 0 116 35.5t36 92.5q0 20 -8 39t-25 34t-43.5 24t-63.5 9h-30q-14 0 -21 5.5t-7 22.5v29q0 30 25 30h25q63 0 96 27t33 75q0 25 -11 42t-28.5 28t-40 16t-45.5 5
q-43 0 -84.5 -12.5t-70.5 -33.5q-17 -12 -27 3l-31 44q-8 11 2 19q20 18 46 31t55 22t59 13.5t59 4.5q45 0 84.5 -11t69.5 -33t47 -53.5t17 -73.5q0 -56 -30 -96.5t-76 -57.5v-5q27 -4 50 -17t40 -33t26.5 -47t9.5 -58q0 -45 -17 -83t-48.5 -66.5t-76.5 -44.5t-102 -16z" />
    <glyph glyph-name="four" unicode="4" horiz-adv-x="595" 
d="M75 148q-20 0 -36.5 9.5t-16.5 39.5v12q0 17 4.5 32t17.5 32l284 370q11 14 26 28.5t35 14.5h32q31 0 42.5 -12.5t11.5 -42.5v-399h69q11 0 14.5 -3.5t3.5 -13.5v-49q0 -10 -3.5 -13.5t-14.5 -3.5h-69v-133q0 -11 -4.5 -13.5t-13.5 -2.5h-63q-9 0 -13 2.5t-4 13.5v132
h-302zM377 552l-2 2l-242 -318l2 -4h242v320z" />
    <glyph glyph-name="five" unicode="5" horiz-adv-x="595" 
d="M543 221q0 -54 -18.5 -97.5t-52.5 -74t-82 -46.5t-107 -16q-31 0 -63 3t-62 10.5t-57.5 20.5t-50.5 33q-9 8 -2 20l33 50q9 14 27 2q37 -25 80.5 -36.5t91.5 -11.5q76 0 120 37.5t44 100.5q0 33 -12 55.5t-31.5 37t-44.5 21t-52 6.5q-28 0 -48.5 -3t-38 -8t-34.5 -12.5
t-38 -16.5q-14 -6 -24 -5.5t-21 5.5l-15 6q-13 5 -21 16t-6 32l25 257q3 33 22 48.5t42 15.5h333q11 0 14 -4t3 -14v-52q0 -10 -3 -14t-14 -4h-302l-20 -188q38 17 79.5 22.5t78.5 5.5q48 0 89 -14t72 -40.5t48.5 -64t17.5 -83.5z" />
    <glyph glyph-name="six" unicode="6" horiz-adv-x="595" 
d="M561 215q0 -59 -21 -101.5t-56 -70.5t-80.5 -41t-93.5 -13q-66 0 -116.5 21.5t-85 62t-52.5 98.5t-18 132q0 80 17.5 150t56 121.5t100.5 81.5t151 30q26 0 58.5 -4t56.5 -14q8 -3 11 -7t-1 -14l-17 -54q-3 -8 -7.5 -10t-15.5 1q-14 5 -39 9.5t-48 4.5q-48 0 -85.5 -15
t-64.5 -42t-43 -64t-22 -82q17 6 38.5 11t45 8t47 5t44.5 2q48 0 91.5 -12t76.5 -37.5t52.5 -64t19.5 -92.5zM461 207q0 27 -8.5 50t-25.5 40t-43.5 26.5t-62.5 9.5q-47 0 -91 -6t-92 -20q-1 -15 -1 -22v-14q0 -43 13 -79t36 -62t55.5 -40.5t70.5 -14.5q69 0 109 34.5
t40 97.5z" />
    <glyph glyph-name="seven" unicode="7" horiz-adv-x="595" 
d="M473 672q19 0 34 -8.5t15 -32.5v-27q0 -16 -4 -29t-12 -27l-285 -532q-5 -9 -10 -12.5t-16 -3.5h-71q-8 0 -12 6.5t1 16.5l299 561h-354q-11 0 -13.5 4t-2.5 14v52q0 10 2.5 14t13.5 4h415z" />
    <glyph glyph-name="eight" unicode="8" horiz-adv-x="595" 
d="M546 187q0 -33 -14.5 -68t-44.5 -64t-77 -47.5t-113 -18.5q-65 0 -112 15.5t-78 42.5t-46 63t-15 77q0 29 9.5 56.5t26 50.5t39 40t49.5 26v3q-27 10 -45.5 26.5t-30.5 35t-17 38t-5 35.5q0 43 17.5 78t47.5 59.5t71 37.5t89 13q51 0 92.5 -14t70.5 -38t44.5 -57
t15.5 -71q0 -16 -5.5 -36.5t-17.5 -40.5t-30.5 -38t-44.5 -28v-3q64 -19 94 -67t30 -106zM422 494q0 45 -32 75t-95 30q-32 0 -55.5 -9t-39 -24t-23 -34.5t-7.5 -40.5t10 -38.5t27 -30t39.5 -19.5t48.5 -7q24 0 47 7.5t41 20.5t28.5 31t10.5 39zM445 196q0 29 -12 51.5
t-32 37.5t-47.5 22.5t-57.5 7.5q-29 0 -55.5 -8.5t-47.5 -24t-33.5 -38.5t-12.5 -52q0 -23 8 -44t25.5 -38t46 -27t69.5 -10q43 0 71.5 11t45.5 29t24.5 40t7.5 43z" />
    <glyph glyph-name="nine" unicode="9" horiz-adv-x="595" 
d="M31 460q0 59 21 101.5t56 70.5t80 41t94 13q65 0 116 -21.5t85.5 -62t52.5 -98.5t18 -132q0 -80 -17.5 -150t-56.5 -121.5t-101 -81.5t-151 -30q-25 0 -57.5 4t-56.5 14q-8 3 -11 7t0 14l18 54q2 7 5.5 10.5t14.5 0.5q5 -2 15.5 -4.5t23.5 -5t26 -4.5t24 -2q48 0 85.5 15
t64.5 42t43.5 64t22.5 82q-34 -12 -79 -19t-87 -7q-48 0 -92.5 12t-79.5 37.5t-56 64t-21 92.5zM131 468q0 -27 9.5 -50t27.5 -40t44 -26.5t58 -9.5q47 0 91 6t92 20q2 15 2 22v14q0 43 -14.5 79t-39 62t-56 40.5t-65.5 14.5q-29 0 -56 -9t-47.5 -25.5t-33 -41.5t-12.5 -56z
" />
    <glyph glyph-name="colon" unicode=":" horiz-adv-x="273" 
d="M216 457q0 -33 -23 -56t-57 -23q-33 0 -55.5 22.5t-22.5 56.5q0 33 22.5 56t55.5 23q35 0 57.5 -22.5t22.5 -56.5zM216 70q0 -34 -23 -56.5t-57 -22.5q-33 0 -55.5 22.5t-22.5 55.5t22.5 56.5t55.5 23.5q35 0 57.5 -22.5t22.5 -56.5z" />
    <glyph glyph-name="semicolon" unicode=";" horiz-adv-x="267" 
d="M228 457q0 -33 -23 -56t-56 -23q-34 0 -56.5 22.5t-22.5 56.5q0 33 22.5 56t56.5 23t56.5 -22.5t22.5 -56.5zM140 -108q-4 -11 -7 -14.5t-14 -3.5h-34q-22 0 -20 15l15 242q1 6 4.5 12t13.5 6h97q11 0 15.5 -6t2.5 -12z" />
    <glyph glyph-name="less" unicode="&#x3c;" horiz-adv-x="595" 
d="M525 596q10 5 13.5 0.5t3.5 -12.5v-56q0 -10 -3 -16t-12 -11l-347 -155l342 -149q12 -7 16 -12t4 -18v-62q0 -5 -4 -9.5t-12 -0.5l-448 203q-11 5 -17.5 10t-8.5 16v34q0 15 6 21t20 13z" />
    <glyph glyph-name="equal" unicode="=" horiz-adv-x="595" 
d="M518 406q0 -10 -2.5 -14t-13.5 -4h-409q-11 0 -13.5 4t-2.5 14v54q0 9 2.5 13.5t13.5 4.5h409q11 0 13.5 -4.5t2.5 -13.5v-54zM518 228q0 -10 -2.5 -14t-13.5 -4h-409q-11 0 -13.5 4t-2.5 14v54q0 9 2.5 13.5t13.5 4.5h409q11 0 13.5 -4.5t2.5 -13.5v-54z" />
    <glyph glyph-name="greater" unicode="&#x3e;" horiz-adv-x="595" 
d="M516 392q14 -7 20 -13t6 -21v-34q-2 -11 -8.5 -16t-17.5 -10l-448 -203q-8 -4 -12 0.5t-4 9.5v62q0 13 4 18t16 12l342 149l-347 155q-9 5 -12 11t-3 16v56q0 8 3.5 12.5t13.5 -0.5z" />
    <glyph glyph-name="question" unicode="?" horiz-adv-x="531" 
d="M265 707q48 0 88.5 -11t70 -33t46 -55.5t16.5 -77.5q0 -29 -9 -53.5t-24 -45.5t-34 -40t-39 -36t-38.5 -33t-33 -32.5t-23.5 -34t-9 -36.5v-19q0 -6 -3 -10.5t-12 -4.5h-69q-15 0 -15 14v25q0 33 12 59t30.5 47.5t41 40t44.5 36.5q31 26 55 54.5t24 69.5q0 12 -4.5 27
t-17.5 28t-36.5 22t-60.5 9q-38 0 -77.5 -13t-73.5 -39q-7 -5 -13.5 -5.5t-11.5 6.5l-31 48q-8 13 5 23q22 18 48.5 31t54 21.5t53 13t46.5 4.5zM302 65q0 -32 -22 -54.5t-55 -22.5q-32 0 -54.5 22t-22.5 55q0 32 24 54.5t56 22.5q9 0 21.5 -3.5t24.5 -12t20 -23.5t8 -38z
" />
    <glyph glyph-name="at" unicode="@" horiz-adv-x="984" 
d="M649 254q0 -8 1.5 -20t7.5 -23t19 -18.5t36 -7.5q56 0 85 45t29 116q0 69 -22 126t-62.5 97.5t-98 63t-129.5 22.5q-80 0 -145.5 -26t-112 -70.5t-72 -104.5t-25.5 -129q0 -73 25 -133t69.5 -103t107 -66.5t137.5 -23.5q17 0 53 4t76 18q8 2 13.5 1.5t8.5 -10.5l12 -34
q3 -10 -1.5 -14.5t-12.5 -8.5q-36 -15 -75.5 -21.5t-76.5 -6.5q-96 0 -173 29t-131 81.5t-83 125.5t-29 161q0 87 33.5 160.5t92 127.5t138 84.5t171.5 30.5q90 0 162 -27t122.5 -76.5t77.5 -119t27 -155.5q0 -52 -15 -96t-42 -75.5t-64.5 -49t-83.5 -17.5q-53 0 -84 18.5
t-39 46.5q-22 -17 -57.5 -31.5t-70.5 -14.5q-73 0 -109 33t-36 94q0 26 9 52t29.5 46.5t54.5 33.5t85 13h82v9q0 33 -15.5 52.5t-65.5 19.5q-29 0 -58 -5.5t-49 -10.5q-9 -2 -15 -1t-8 11l-9 38q-2 6 0 11.5t13 10.5q31 11 65 16t72 5q82 0 119 -37t37 -105v-162zM485 327
q-14 0 -30.5 -1.5t-31 -8.5t-24 -21t-9.5 -39q0 -17 6.5 -28t17 -17t23.5 -8.5t27 -2.5q20 0 46.5 7.5t52.5 26.5v92h-78z" />
    <glyph glyph-name="A" unicode="A" horiz-adv-x="629" 
d="M524 0q-11 0 -17 2t-10 14l-47 142h-271l-47 -142q-3 -8 -8 -12t-16 -4h-77q-11 0 -14 6.5t0 14.5l222 637q9 26 20 34.5t37 9.5h33q30 0 41 -9.5t19 -34.5l223 -637q3 -8 0 -14.5t-13 -6.5h-75zM359 442l-45 142h-5l-42 -137l-61 -198h214z" />
    <glyph glyph-name="B" unicode="B" horiz-adv-x="654" 
d="M492 217q0 54 -34 87.5t-100 33.5h-179v-243h178q40 0 66 12t41.5 30t21.5 39.5t6 40.5zM179 425h177q15 0 33.5 4t34.5 14.5t26.5 29.5t10.5 49q0 40 -26.5 63t-71.5 23h-184v-183zM489 385q57 -22 83.5 -71t26.5 -104q0 -47 -18 -85.5t-49.5 -66.5t-73.5 -43t-90 -15
h-239q-29 0 -41.5 12.5t-12.5 41.5v593q0 29 12.5 41.5t41.5 12.5l223 1q47 0 87 -9.5t69 -30.5t45 -53.5t16 -78.5t-23 -82.5t-57 -55.5v-7z" />
    <glyph glyph-name="C" unicode="C" horiz-adv-x="606" 
d="M375 86q44 0 82.5 10t71.5 24q13 5 18.5 0.5t7.5 -9.5l21 -48q7 -14 4.5 -18.5t-9.5 -9.5q-48 -29 -105.5 -37.5t-108.5 -8.5q-71 0 -127 21t-95 64t-59.5 109t-20.5 157q0 84 22.5 152t63 116.5t98 75t126.5 26.5q42 0 88.5 -7.5t97.5 -33.5q6 -3 8.5 -8.5t-3.5 -16.5
l-25 -52q-4 -7 -7.5 -9.5t-12.5 1.5q-31 13 -67 21t-75 8q-55 0 -94.5 -23.5t-64.5 -62t-37 -87.5t-12 -100t10 -97t34.5 -81t65.5 -55.5t104 -20.5z" />
    <glyph glyph-name="D" unicode="D" horiz-adv-x="682" 
d="M521 353q0 53 -10.5 99.5t-35 81t-66 54.5t-102.5 20h-127v-514h130q61 0 101.5 19.5t65 54t34.5 82t10 103.5zM129 0q-29 0 -41.5 12.5t-12.5 41.5v593q0 29 12.5 41.5t41.5 12.5l183 1q78 0 136.5 -24t98.5 -69.5t60 -110t20 -143.5q0 -78 -18 -143.5t-55.5 -112.5
t-95 -73t-136.5 -26h-193z" />
    <glyph glyph-name="E" unicode="E" horiz-adv-x="588" 
d="M548 23q0 -11 -3.5 -17t-17.5 -6h-278q-51 0 -84.5 14.5t-53.5 38.5t-28 56t-8 67v348q0 35 9.5 67t30.5 56.5t54 39t80 14.5h274q14 0 17.5 -6t3.5 -17v-48q0 -13 -3.5 -17.5t-17.5 -4.5h-274q-38 0 -54.5 -16.5t-16.5 -52.5v-123h312q13 0 16.5 -5t3.5 -18v-42
q0 -11 -3.5 -17t-16.5 -6h-312v-166q0 -30 16.5 -49t54.5 -19h278q14 0 17.5 -5t3.5 -18v-48v0z" />
    <glyph glyph-name="F" unicode="F" horiz-adv-x="580" 
d="M178 21q0 -14 -5 -17.5t-18 -3.5h-57q-11 0 -17 3.5t-6 17.5v503q0 35 8.5 67t28.5 56.5t53.5 39t83.5 14.5h275q14 0 17.5 -6t3.5 -17v-47q0 -13 -3.5 -18t-17.5 -5h-275q-38 0 -54.5 -16t-16.5 -52v-132h311q13 0 16.5 -5t3.5 -18v-43q0 -11 -3.5 -17t-16.5 -6h-311
v-298v0z" />
    <glyph glyph-name="G" unicode="G" horiz-adv-x="658" 
d="M367 83q7 0 21.5 0.5t32.5 2.5t38 6t38 11v214q-7 1 -13 1h-13q-34 1 -73.5 -6t-77.5 -24q-11 -5 -16.5 -5.5t-10.5 8.5l-21 51q-4 8 -2.5 13.5t9.5 10.5q33 21 80.5 33t92.5 12q26 0 42 -1t31 -3q43 -8 58 -27t15 -62v-248q0 -19 -15 -29q-27 -17 -59.5 -27t-64 -15.5
t-58.5 -7.5t-44 -2q-71 0 -127 21t-95 64.5t-59.5 110t-20.5 157.5q0 84 21.5 152t61 116t97 74t129.5 26q42 0 92.5 -7.5t101.5 -33.5q6 -3 8.5 -8.5t-3.5 -16.5l-25 -57q-4 -7 -7.5 -9.5t-12.5 1.5q-31 13 -72 21t-80 8q-57 0 -96.5 -23t-63.5 -60.5t-34.5 -85.5
t-10.5 -99q0 -53 8.5 -99.5t31.5 -81.5t63 -55.5t103 -20.5z" />
    <glyph glyph-name="H" unicode="H" horiz-adv-x="694" 
d="M515 679q0 14 6 17.5t17 3.5h58q13 0 18 -3.5t5 -17.5v-658q0 -14 -5 -17.5t-18 -3.5h-58q-11 0 -17 3.5t-6 17.5v303h-336v-303q0 -14 -5 -17.5t-18 -3.5h-58q-11 0 -17 3.5t-6 17.5v658q0 14 6 17.5t17 3.5h58q13 0 18 -3.5t5 -17.5v-266h336v266z" />
    <glyph glyph-name="I" unicode="I" horiz-adv-x="275" 
d="M86 679q0 14 6 17.5t17 3.5h58q13 0 18 -3.5t5 -17.5v-658q0 -14 -5 -17.5t-18 -3.5h-58q-11 0 -17 3.5t-6 17.5v658z" />
    <glyph glyph-name="J" unicode="J" horiz-adv-x="567" 
d="M384 679q0 14 6 17.5t17 3.5h58q13 0 18 -3.5t5 -17.5v-102v-73.5t-0.5 -56t-0.5 -49.5v-54v-69q0 -67 -15 -120t-47.5 -90t-82 -56.5t-118.5 -19.5q-22 0 -48 2.5t-54 8t-55 15t-51 23.5q-7 5 -9.5 9.5t3.5 16.5l26 52q7 14 24 5q33 -16 77 -27t90 -11q86 0 122 49.5
t36 147.5z" />
    <glyph glyph-name="K" unicode="K" horiz-adv-x="639" 
d="M75 679q0 14 6 17.5t17 3.5h56q13 0 18 -3.5t5 -17.5v-326l4 -2l104 131l169 205q5 5 13.5 9t20.5 4h85q9 0 11.5 -5t-2.5 -11l-193 -235l241 -427q5 -10 2.5 -16t-12.5 -6h-72q-17 0 -25 3t-16 17l-190 343l-140 -174v-168q0 -14 -5 -17.5t-18 -3.5h-56q-11 0 -17 3.5
t-6 17.5v658z" />
    <glyph glyph-name="L" unicode="L" horiz-adv-x="558" 
d="M75 681q0 14 6 17.5t17 3.5h57q13 0 18 -3.5t5 -17.5v-511q0 -76 77 -76h277q11 0 13.5 -4.5t2.5 -13.5v-57q0 -10 -2.5 -14.5t-13.5 -4.5h-286q-50 0 -82.5 14.5t-52.5 39t-28 56t-8 66.5v505z" />
    <glyph glyph-name="M" unicode="M" horiz-adv-x="818" 
d="M644 516h-6l-57 -149l-96 -241q-10 -26 -20.5 -35t-36.5 -9h-38q-26 0 -36.5 9t-20.5 35l-97 237l-56 141h-6v-483q0 -14 -5 -17.5t-18 -3.5h-53q-11 0 -17 3.5t-6 17.5v625q0 26 11 40.5t43 14.5h31q23 0 36 -8t24 -35l129 -326l58 -152h4l57 149l130 329q11 27 24 35
t36 8h31q32 0 43 -14.5t11 -40.5v-625q0 -14 -5 -17.5t-18 -3.5h-53q-11 0 -17 3.5t-6 17.5v495z" />
    <glyph glyph-name="N" unicode="N" horiz-adv-x="700" 
d="M524 680q0 14 6 17.5t17 3.5h55q13 0 18 -3.5t5 -17.5v-625q0 -28 -11.5 -41.5t-42.5 -13.5h-30q-24 0 -35 10t-25 33l-220 367l-82 142h-3v-531q0 -14 -5 -17.5t-18 -3.5h-55q-11 0 -17 3.5t-6 17.5v625q0 28 11.5 41.5t42.5 13.5h30q24 0 35 -10t25 -33l217 -363
l85 -146h3v531z" />
    <glyph glyph-name="O" unicode="O" horiz-adv-x="712" 
d="M657 353q0 -176 -77 -270t-227 -94q-147 0 -222.5 90.5t-75.5 269.5q0 87 23 154.5t63.5 113.5t95.5 70t119 24q74 0 130 -24.5t94 -71t57.5 -112.5t19.5 -150zM552 349q0 52 -8 101t-29 86t-58.5 59.5t-97.5 22.5q-51 0 -88.5 -21t-62 -57t-37 -84.5t-12.5 -102.5
q0 -61 9.5 -111t32 -85.5t60 -55t93.5 -19.5q57 0 95 22.5t61 59.5t32.5 85t9.5 100z" />
    <glyph glyph-name="P" unicode="P" horiz-adv-x="613" 
d="M75 648q0 29 12.5 41.5t41.5 12.5h233q48 0 88.5 -15t69.5 -43t45.5 -66.5t16.5 -85.5q0 -27 -9 -64.5t-33.5 -71.5t-68.5 -57.5t-113 -23.5h-181v-254q0 -14 -5 -17.5t-18 -3.5h-56q-11 0 -17 3.5t-6 17.5v627zM475 485q0 19 -6 40.5t-21.5 39.5t-42 30t-68.5 12h-159
v-241h162q71 0 103 33t32 86z" />
    <glyph glyph-name="Q" unicode="Q" horiz-adv-x="712" 
d="M657 353q0 -176 -77 -270t-227 -94q-147 0 -222.5 90.5t-75.5 269.5q0 87 23 154.5t63.5 113.5t95.5 70t119 24q74 0 130 -24.5t94 -71t57.5 -112.5t19.5 -150zM552 349q0 52 -8 101t-29 86t-58.5 59.5t-97.5 22.5q-51 0 -88.5 -21t-62 -57t-37 -84.5t-12.5 -102.5
q0 -61 9.5 -111t32 -85.5t60 -55t93.5 -19.5q57 0 95 22.5t61 59.5t32.5 85t9.5 100zM328 -141q-11 0 -13.5 4.5t-2.5 13.5v51q0 10 2.5 14t13.5 4h114q40 0 76.5 -5t68 -13.5t55.5 -19.5t39 -22q8 -6 10 -11t-3 -13l-25 -41q-10 -19 -30 -8q-40 23 -96.5 34.5t-121.5 11.5
h-87z" />
    <glyph glyph-name="R" unicode="R" horiz-adv-x="633" 
d="M75 648q0 29 12.5 41.5t41.5 12.5h230q48 0 87.5 -14.5t68 -41t44.5 -63.5t16 -81q0 -60 -30 -104t-80 -64v-5q21 -6 34.5 -15.5t23 -22t15.5 -27.5t11 -33l58 -211q2 -5 0.5 -12.5t-14.5 -7.5h-75q-5 0 -11 2t-9 12l-51 189q-16 56 -50.5 75t-83.5 19h-132v-276
q0 -14 -5 -17.5t-18 -3.5h-60q-11 0 -17 3.5t-6 17.5v627zM471 498q0 16 -4.5 35t-18 35.5t-37.5 27.5t-63 11h-166v-221h158q36 0 60.5 9t40.5 24.5t23 36t7 42.5z" />
    <glyph glyph-name="S" unicode="S" horiz-adv-x="577" 
d="M548 190q0 -52 -19.5 -90t-53 -62.5t-78 -36.5t-94.5 -12q-62 0 -130 10.5t-128 40.5q-12 5 -5 21l27 61q6 12 18 7q108 -47 200 -47q84 0 120.5 28.5t36.5 75.5q0 24 -10 42.5t-29.5 34t-48 29t-66.5 28.5q-56 22 -98 43t-70.5 45t-43 53t-14.5 67q0 83 55 133.5
t164 50.5q25 0 54 -2.5t57.5 -7.5t55.5 -12.5t50 -17.5q12 -6 7 -17l-23 -64q-3 -8 -6 -9t-8 1q-51 18 -100.5 26.5t-90.5 8.5q-57 0 -84 -24t-27 -58q0 -22 10.5 -38.5t32.5 -31.5t55 -30t78 -34q38 -16 75 -33.5t66 -41.5t47 -57t18 -80z" />
    <glyph glyph-name="T" unicode="T" horiz-adv-x="555" 
d="M222 609h-191q-11 0 -13.5 4t-2.5 13v56q0 9 2.5 13.5t13.5 4.5h493q11 0 13.5 -4.5t2.5 -13.5v-56q0 -9 -2.5 -13t-13.5 -4h-196v-588q0 -14 -5 -17.5t-18 -3.5h-60q-11 0 -17 3.5t-6 17.5v588z" />
    <glyph glyph-name="U" unicode="U" horiz-adv-x="684" 
d="M74 679q0 14 6 17.5t17 3.5h60q13 0 18 -3.5t5 -17.5v-371q0 -58 7.5 -100.5t29 -71t62 -42.5t106.5 -14q17 0 49 1.5t73 9.5v588q0 14 6 17.5t17 3.5h60q13 0 16 -3.5t3 -17.5v-582q0 -40 -17.5 -65t-64.5 -33q-38 -6 -77 -8.5t-71 -2.5q-83 0 -141 16t-94 53t-52.5 98
t-16.5 151z" />
    <glyph glyph-name="V" unicode="V" horiz-adv-x="640" 
d="M397 41q-8 -22 -17.5 -31t-31.5 -10h-49q-23 0 -35.5 8t-21.5 33l-225 646q-5 14 9 14h81q15 0 19 -13l142 -434l49 -147h6l45 146l146 435q4 10 9 11.5t13 1.5h79q13 0 8 -14z" />
    <glyph glyph-name="W" unicode="W" horiz-adv-x="836" 
d="M417 584l-32 -160l-80 -375q-5 -23 -15.5 -36t-32.5 -13h-49q-23 0 -37.5 7.5t-19.5 33.5l-135 646q-4 14 9 14h81q16 0 19 -13l73 -405l28 -161h6l32 159l77 370q4 20 16 35t43 15h43q26 0 38 -14t17 -36l74 -365l32 -164h6l30 165l74 401q3 13 19 13h78q12 0 9 -14
l-135 -646q-5 -26 -19.5 -33.5t-37.5 -7.5h-49q-22 0 -32.5 13t-15.5 36l-79 376l-31 159h-4z" />
    <glyph glyph-name="X" unicode="X" horiz-adv-x="571" 
d="M559 14q2 -5 0.5 -9.5t-9.5 -4.5h-82q-13 0 -19 3.5t-11 11.5l-154 263l-155 -263q-5 -8 -11 -11.5t-19 -3.5h-79q-8 0 -9.5 4.5t1.5 9.5l214 345l-201 329q-2 4 -0.5 8.5t9.5 4.5h79q14 0 19.5 -2.5t10.5 -12.5l144 -243l143 243q5 9 11 12t19 3h75q8 0 9.5 -5t-1.5 -10
l-199 -324l215 -348v0z" />
    <glyph glyph-name="Y" unicode="Y" horiz-adv-x="578" 
d="M342 277v-261q0 -11 -3.5 -13.5t-13.5 -2.5h-66q-9 0 -13.5 2.5t-4.5 13.5v261l-229 412q-2 4 -0.5 8t8.5 4h85q8 0 12.5 -2.5t9.5 -11.5l85 -162l79 -157h4l83 164l81 155q8 14 22 14h79q6 0 7.5 -4t-0.5 -8z" />
    <glyph glyph-name="Z" unicode="Z" horiz-adv-x="617" 
d="M512 701q29 0 43.5 -11.5t14.5 -40.5v-21q0 -20 -7.5 -35t-20.5 -30l-392 -468l2 -6h411q11 0 13.5 -4t2.5 -14v-53q0 -10 -2.5 -14t-13.5 -4h-478q-55 0 -55 49v16q0 20 5.5 33t18.5 27l407 484l-2 3h-361q-11 0 -13.5 4t-2.5 13v54q0 9 2.5 13.5t13.5 4.5h414z" />
    <glyph glyph-name="bracketleft" unicode="[" horiz-adv-x="313" 
d="M287 -72q0 -9 -2.5 -13.5t-13.5 -4.5h-192q-11 0 -13.5 4.5t-2.5 13.5v774q0 9 2.5 13.5t13.5 4.5h192q11 0 13.5 -4.5t2.5 -13.5v-40q0 -9 -2.5 -13t-13.5 -4h-111v-660h111q11 0 13.5 -4t2.5 -13v-40v0z" />
    <glyph glyph-name="backslash" unicode="\" horiz-adv-x="442" 
d="M430 -80q3 -9 -1.5 -12.5t-12.5 -3.5h-62q-18 0 -23 16l-314 842q-4 9 1.5 12.5t10.5 3.5h65q9 0 13.5 -3.5t8.5 -12.5l314 -842v0z" />
    <glyph glyph-name="bracketright" unicode="]" horiz-adv-x="313" 
d="M275 -72q0 -9 -2.5 -13.5t-13.5 -4.5h-192q-11 0 -13.5 4.5t-2.5 13.5v40q0 9 2.5 13t13.5 4h111v660h-111q-11 0 -13.5 4t-2.5 13v40q0 9 2.5 13.5t13.5 4.5h192q11 0 13.5 -4.5t2.5 -13.5v-774v0z" />
    <glyph glyph-name="asciicircum" unicode="^" horiz-adv-x="530" 
d="M218 700q7 11 14 18.5t18 7.5h19q14 0 20.5 -4.5t14.5 -17.5l188 -308q6 -9 2 -13t-12 -4h-65q-10 0 -16 3t-11 12l-125 211h-3l-123 -207q-7 -12 -12 -16t-18 -4h-69q-10 0 -12.5 4.5t2.5 11.5z" />
    <glyph glyph-name="underscore" unicode="_" horiz-adv-x="500" 
d="M0 -129q-11 0 -13.5 4t-2.5 14v23q0 9 2.5 13.5t13.5 4.5h500q11 0 13.5 -4.5t2.5 -13.5v-23q0 -10 -2.5 -14t-13.5 -4h-500v0z" />
    <glyph glyph-name="grave" unicode="`" horiz-adv-x="533" 
d="M294 580q-8 -2 -12.5 -0.5t-10.5 9.5l-110 153q-4 5 -2.5 9.5t9.5 6.5l77 21q10 2 14.5 -1.5t6.5 -8.5l66 -158q5 -10 3.5 -13.5t-9.5 -5.5z" />
    <glyph glyph-name="a" unicode="a" horiz-adv-x="545" 
d="M480 52q0 -21 -17 -29q-45 -20 -98.5 -27t-101.5 -7q-65 0 -107.5 13.5t-67 36.5t-34 53.5t-9.5 63.5t11 65t36.5 57.5t68.5 41t106 15.5h114v18q0 22 -4.5 40t-17 31t-34.5 20t-57 7q-18 0 -37.5 -2t-38 -5t-35 -6.5t-27.5 -6.5q-10 -3 -15 -2t-7 10l-13 49q-4 14 9 19
q40 16 90.5 22.5t90.5 6.5q102 0 148.5 -46.5t46.5 -131.5v-306zM380 251h-107q-18 0 -40.5 -2.5t-42 -12t-33 -28.5t-13.5 -52q0 -49 32 -67.5t86 -18.5q8 0 22 0.5t30 2.5t33.5 5.5t32.5 8.5v164z" />
    <glyph glyph-name="b" unicode="b" horiz-adv-x="566" 
d="M521 269q0 -62 -14.5 -113t-45 -88.5t-77 -58t-110.5 -20.5q-48 0 -99.5 7.5t-96.5 26.5q-13 5 -13 20v672q0 11 4.5 13.5t13.5 2.5h63q10 0 14 -2.5t4 -13.5v-198q32 9 68 14t62 5q59 0 102 -19.5t70.5 -55t41 -84.5t13.5 -108zM164 87q27 -8 55.5 -11.5t51.5 -3.5
q33 0 61 10.5t47.5 33.5t30.5 59t11 88q0 94 -36.5 141t-102.5 47q-18 0 -49.5 -3t-68.5 -14v-347z" />
    <glyph glyph-name="c" unicode="c" horiz-adv-x="482" 
d="M285 74q33 0 65.5 8.5t53.5 19.5q10 5 14 2.5t7 -8.5l23 -48q9 -15 -6 -23q-38 -22 -84.5 -29t-86.5 -7q-109 0 -167.5 67.5t-58.5 200.5q0 63 16.5 114.5t47 88t74.5 56.5t99 20q41 0 78 -8t71 -27q15 -8 6 -23l-23 -48q-3 -6 -6.5 -8.5t-14.5 2.5q-23 10 -50 17t-59 7
q-37 0 -63.5 -15.5t-43.5 -42t-25 -61t-8 -72.5q0 -37 6.5 -70.5t22 -58.5t43 -39.5t69.5 -14.5z" />
    <glyph glyph-name="d" unicode="d" horiz-adv-x="565" 
d="M45 254q0 56 14 107t44 90t76 62t110 23q21 0 50.5 -2.5t61.5 -10.5v192q0 11 4 13.5t14 2.5h63q9 0 13.5 -2.5t4.5 -13.5v-670q0 -14 -13 -19q-54 -23 -109 -30t-99 -7q-64 0 -108.5 19t-72.5 53.5t-40.5 83.5t-12.5 109zM147 254q0 -99 39 -140t109 -41q24 0 55.5 4.5
t50.5 12.5v347q-35 9 -58.5 11.5t-46.5 2.5q-32 0 -59 -10.5t-47 -34t-31.5 -61t-11.5 -91.5z" />
    <glyph glyph-name="e" unicode="e" horiz-adv-x="542" 
d="M279 536q57 0 98.5 -15.5t68.5 -44t40 -69t13 -89.5q0 -26 -7 -42.5t-18 -26t-26.5 -13.5t-31.5 -4h-272q1 -44 13 -74t33 -48.5t48 -27t58 -8.5q33 0 65.5 9t52.5 20q15 7 21 -6l24 -47q7 -16 -6 -23q-38 -23 -81 -30.5t-83 -7.5q-115 0 -179.5 64.5t-64.5 206.5
q0 66 18 117t49.5 86.5t74 54t92.5 18.5zM406 310q0 30 -5.5 56t-19.5 45.5t-38.5 31t-62.5 11.5q-31 0 -55 -12.5t-40.5 -33t-26 -46t-10.5 -52.5h258z" />
    <glyph glyph-name="f" unicode="f" horiz-adv-x="345" 
d="M348 655q-3 -12 -17 -9q-21 4 -38.5 5t-31.5 1q-38 0 -52.5 -16.5t-14.5 -42.5v-68h122q11 0 13.5 -4t2.5 -12v-46q0 -7 -2.5 -11.5t-13.5 -4.5h-122v-431q0 -11 -4 -13.5t-14 -2.5h-62q-10 0 -14 2.5t-4 13.5v431h-72q-11 0 -13.5 4.5t-2.5 11.5v26q0 8 3 12.5t13 6.5
l72 16v67q0 69 35.5 108.5t114.5 39.5q15 0 44.5 -2t60.5 -12q8 -2 9 -7t-1 -11z" />
    <glyph glyph-name="g" unicode="g" horiz-adv-x="565" 
d="M402 437q-27 8 -55.5 11.5t-51.5 3.5q-33 0 -61 -10.5t-47.5 -33.5t-30.5 -59t-11 -88q0 -94 36.5 -141t102.5 -47q18 0 49.5 3t68.5 14v347zM292 535q48 0 99.5 -7.5t96.5 -26.5q13 -5 13 -20v-437q0 -67 -16 -113.5t-48 -78t-80 -49t-113 -26.5q-8 -1 -12 1t-6 10
l-8 63q0 12 11 14q43 6 75 16t53.5 25.5t32 39t10.5 56.5v5q-32 -9 -67 -14t-61 -5q-59 0 -102 19.5t-70.5 55t-41 84.5t-13.5 108q0 61 14.5 112.5t45 89t77 58t110.5 20.5z" />
    <glyph glyph-name="h" unicode="h" horiz-adv-x="568" 
d="M504 16q0 -11 -4.5 -13.5t-13.5 -2.5h-63q-10 0 -14 2.5t-4 13.5v280q0 154 -129 154q-29 0 -59.5 -4t-53.5 -14v-416q0 -11 -4 -13.5t-14 -2.5h-62q-9 0 -13.5 2.5t-4.5 13.5v699q0 11 4.5 13.5t13.5 2.5h62q10 0 14 -2.5t4 -13.5v-200q30 11 65.5 16t64.5 5
q56 0 96 -16.5t65.5 -47.5t37.5 -75.5t12 -99.5v-281z" />
    <glyph glyph-name="i" unicode="i" horiz-adv-x="270" 
d="M200 662q0 -27 -19 -46t-46 -19t-46 19t-19 46t19 46t46 19t46 -19t19 -46zM183 16q0 -11 -4 -13.5t-14 -2.5h-62q-9 0 -13.5 2.5t-4.5 13.5v493q0 11 4.5 13.5t13.5 2.5h62q10 0 14 -2.5t4 -13.5v-493z" />
    <glyph glyph-name="j" unicode="j" horiz-adv-x="285" 
d="M210 662q0 -27 -19 -46t-46 -19t-46 19t-19 46t19 46t46 19t46 -19t19 -46zM195 78q0 -72 -13.5 -123t-37 -85.5t-56 -55.5t-69.5 -34q-14 -4 -18 8l-20 60q-2 8 1 11.5t10 6.5q34 16 54.5 37t31.5 45.5t14.5 52t3.5 56.5v452q0 11 4.5 13.5t13.5 2.5h63q10 0 14 -2.5
t4 -13.5v-431z" />
    <glyph glyph-name="k" unicode="k" horiz-adv-x="504" 
d="M166 294l188 223q3 4 6.5 6t12.5 2h88q5 0 6.5 -4.5t-1.5 -8.5l-133 -160l154 -340q2 -4 1 -8t-9 -4h-74q-11 0 -15.5 2.5t-7.5 8.5l-117 262l-103 -118v-139q0 -11 -4 -13.5t-14 -2.5h-62q-9 0 -13.5 2.5t-4.5 13.5v699q0 11 4.5 13.5t13.5 2.5h62q10 0 14 -2.5t4 -13.5
v-419z" />
    <glyph glyph-name="l" unicode="l" horiz-adv-x="286" 
d="M265 22q1 -9 -0.5 -12.5t-10.5 -8.5q-19 -8 -42 -10t-40 -2q-53 0 -75 24.5t-22 78.5v623q0 11 4 13.5t14 2.5h64q10 0 14 -2.5t4 -13.5v-596q0 -27 7.5 -35.5t25.5 -8.5q9 0 18.5 0.5t17.5 1.5t11 -1t4 -10l6 -44v0z" />
    <glyph glyph-name="m" unicode="m" horiz-adv-x="896" 
d="M831 16q0 -11 -4 -13.5t-14 -2.5h-62q-9 0 -13.5 2.5t-4.5 13.5v262q0 88 -32 129.5t-109 41.5q-15 0 -31.5 -2t-33 -6t-31.5 -9t-26 -11q14 -29 18 -63.5t4 -75.5v-266q0 -11 -4 -13.5t-14 -2.5h-62q-9 0 -13.5 2.5t-4.5 13.5v265q0 38 -5.5 69t-21.5 53t-45 34t-75 12
q-7 0 -18 -0.5t-23.5 -1.5t-24 -2.5t-18.5 -2.5v-426q0 -11 -4 -13.5t-14 -2.5h-62q-9 0 -13.5 2.5t-4.5 13.5v424q0 37 13 57.5t57 30.5q7 1 20.5 2.5t29.5 3t31.5 2t26.5 0.5q60 0 101.5 -12t73.5 -40q36 25 84 38.5t105 13.5q61 0 103.5 -17.5t69.5 -50t39 -77.5t12 -99
v-276v0z" />
    <glyph glyph-name="n" unicode="n" horiz-adv-x="568" 
d="M503 16q0 -11 -4 -13.5t-14 -2.5h-62q-9 0 -13.5 2.5t-4.5 13.5v264q0 43 -7 74.5t-25 52.5t-48 31.5t-76 10.5q-11 0 -33 -1t-53 -6v-426q0 -11 -4 -13.5t-14 -2.5h-62q-9 0 -13.5 2.5t-4.5 13.5v428q0 37 14 57.5t56 26.5q10 1 26 2.5t33.5 3t34 2t28.5 0.5
q64 0 110.5 -14t76.5 -44.5t44.5 -78.5t14.5 -116v-267v0z" />
    <glyph glyph-name="o" unicode="o" horiz-adv-x="563" 
d="M518 265q0 -134 -60.5 -205t-178.5 -71q-115 0 -174.5 68.5t-59.5 204.5q0 66 18 117t50 86t75.5 53t93.5 18q116 0 176 -71.5t60 -199.5zM419 262q0 37 -5.5 72t-20.5 61.5t-41 42.5t-68 16q-36 0 -62.5 -15t-44 -40.5t-26 -60t-8.5 -73.5q0 -44 6.5 -79.5t22.5 -61
t42.5 -39.5t65.5 -14q40 0 66.5 16t42.5 42.5t23 61t7 71.5z" />
    <glyph glyph-name="p" unicode="p" horiz-adv-x="565" 
d="M520 263q0 -56 -14.5 -105.5t-43.5 -87t-73 -59.5t-102 -22q-26 0 -56.5 3t-66.5 12v-190q0 -11 -4 -13.5t-14 -2.5h-63q-9 0 -13.5 2.5t-4.5 13.5v666q0 14 13 19q51 22 104.5 29.5t101.5 7.5q61 0 106 -21t73.5 -58t42.5 -87t14 -107zM418 263q0 103 -40 146t-110 43
q-24 0 -54.5 -4.5t-49.5 -12.5v-346q35 -9 59.5 -12t47.5 -3q32 0 59 9.5t46.5 31.5t30.5 58t11 90z" />
    <glyph glyph-name="q" unicode="q" horiz-adv-x="566" 
d="M45 256q0 61 14.5 112.5t45 89t77 58t110.5 20.5q48 0 99.5 -7.5t96.5 -26.5q13 -5 13 -20v-672q0 -11 -4.5 -13.5t-13.5 -2.5h-63q-10 0 -14 2.5t-4 13.5v198q-32 -9 -68 -14t-62 -5q-59 0 -102 19.5t-70.5 55t-41 84.5t-13.5 108zM402 438q-27 8 -55.5 11.5t-51.5 3.5
q-33 0 -61 -10.5t-47.5 -33.5t-30.5 -59t-11 -88q0 -94 36.5 -141t102.5 -47q18 0 49.5 3t68.5 14v347z" />
    <glyph glyph-name="r" unicode="r" horiz-adv-x="423" 
d="M382 395q-5 -8 -9.5 -6.5t-9.5 5.5q-57 54 -139 54q-13 0 -26 -1.5t-25 -3.5v-427q0 -11 -4 -13.5t-14 -2.5h-62q-9 0 -13.5 2.5t-4.5 13.5v431q0 41 14 59.5t56 24.5q18 2 36.5 3.5t36.5 1.5q58 0 109 -15.5t95 -53.5q9 -8 2 -17z" />
    <glyph glyph-name="s" unicode="s" horiz-adv-x="473" 
d="M433 145q0 -40 -15 -69t-41 -48.5t-60.5 -29t-73.5 -9.5q-48 0 -102 9t-96 32q-6 3 -9 8.5t2 14.5l21 47q4 8 8.5 10.5t15.5 -2.5q40 -18 82.5 -27t77.5 -9q47 0 71.5 18.5t24.5 50.5q0 34 -31 53.5t-87 39.5q-41 15 -71.5 29.5t-50.5 32.5t-30 40.5t-10 52.5
q0 66 47 106.5t135 40.5q41 0 79.5 -6.5t78.5 -22.5q7 -3 9 -9t0 -12l-21 -53q-3 -7 -7.5 -7t-9.5 2q-41 15 -69.5 20t-62.5 5q-43 0 -63 -17.5t-20 -40.5q0 -15 6 -26.5t19.5 -21.5t35 -19.5t52.5 -21.5q30 -11 59.5 -24t53 -31.5t38 -44t14.5 -61.5z" />
    <glyph glyph-name="t" unicode="t" horiz-adv-x="376" 
d="M31 447q-11 0 -13.5 4.5t-2.5 11.5v33q0 8 3 12.5t13 6.5l77 16l17 96q2 11 6.5 14t14.5 7l37 14q8 2 12.5 -0.5t4.5 -13.5v-123h105q11 0 13.5 -4.5t2.5 -11.5v-46q0 -8 -2.5 -12t-13.5 -4h-105v-312q0 -33 15 -46.5t47 -13.5q13 0 37 2.5t39 4.5q10 2 13 -0.5t4 -8.5
l10 -52q1 -6 0.5 -10.5t-9.5 -7.5q-31 -10 -63.5 -12t-47.5 -2q-79 0 -111 34t-32 106v318h-71z" />
    <glyph glyph-name="u" unicode="u" horiz-adv-x="558" 
d="M65 510q0 11 4 13.5t14 2.5h62q9 0 13.5 -2.5t4.5 -13.5v-264q0 -43 5.5 -74.5t21.5 -52.5t44.5 -31.5t74.5 -10.5q11 0 33 1t53 6v426q0 11 4 13.5t14 2.5h62q9 0 13.5 -2.5t4.5 -13.5v-428q0 -72 -70 -84q-28 -5 -63 -6.5t-59 -1.5q-65 0 -109.5 14t-73 44.5t-41 78.5
t-12.5 116v267v0z" />
    <glyph glyph-name="v" unicode="v" horiz-adv-x="505" 
d="M333 42q-9 -26 -19.5 -36.5t-36.5 -10.5h-44q-20 0 -32.5 8t-23.5 38l-161 473q-3 11 9 11h76q8 0 10.5 -2.5t4.5 -7.5l85 -257l52 -171h6l50 169l82 259q2 5 4.5 7.5t10.5 2.5h74q12 0 9 -11z" />
    <glyph glyph-name="w" unicode="w" horiz-adv-x="751" 
d="M373 393l-46 -176l-54 -178q-6 -21 -17 -32.5t-37 -11.5h-43q-19 0 -32 8.5t-20 39.5l-103 473q-3 11 9 11h76q8 0 10.5 -2.5t4.5 -7.5l50 -270l27 -145h6l38 131l64 232q5 16 15.5 29t39.5 13h34q24 0 33 -12.5t15 -32.5l60 -213l44 -156h6l27 154l50 270q2 5 4.5 7.5
t10.5 2.5h76q12 0 9 -11l-104 -473q-7 -31 -22 -39.5t-34 -8.5h-40q-26 0 -36 9t-18 35l-54 184l-45 170h-4z" />
    <glyph glyph-name="x" unicode="x" horiz-adv-x="482" 
d="M297 282l174 -266q3 -5 2.5 -10.5t-9.5 -5.5h-82q-13 0 -17 3.5t-8 9.5l-118 191l-121 -190q-5 -7 -10 -10.5t-16 -3.5h-73q-16 0 -7 17l173 260l-151 231q-3 5 -2 11t9 6h76q11 0 16.5 -3.5t9.5 -9.5l100 -163l103 163q4 6 9 9.5t15 3.5h73q10 0 10.5 -5.5t-1.5 -8.5z
" />
    <glyph glyph-name="y" unicode="y" horiz-adv-x="499" 
d="M290 -84q-23 -69 -61.5 -97t-97.5 -28q-13 0 -35 2t-47 9q-16 4 -12 17l12 50q2 9 6 10.5t12 -0.5q17 -4 26 -5.5t23 -1.5q36 0 57 14t33 51l23 69h-21q-16 0 -28 5.5t-21 34.5l-148 468q-3 11 9 11h77q8 0 10.5 -2.5t4.5 -7.5l76 -247l54 -185h6l60 186l82 246
q2 5 4.5 7.5t10.5 2.5h74q12 0 9 -11z" />
    <glyph glyph-name="z" unicode="z" horiz-adv-x="467" 
d="M400 525q26 0 36.5 -9t10.5 -32v-18q0 -12 -4 -25.5t-14 -24.5l-297 -334l1 -2h296q11 0 14 -4.5t3 -11.5v-48q0 -8 -3 -12t-14 -4h-366q-25 0 -34 11t-9 27v16q0 14 4 29t17 29l294 330l-1 3h-273q-11 0 -14 4t-3 12v48q0 7 3 11.5t14 4.5h339z" />
    <glyph glyph-name="braceleft" unicode="{" horiz-adv-x="359" 
d="M300 -95q0 -9 -9 -9q-33 1 -63.5 10t-54 28.5t-37 51t-13.5 76.5v134q0 48 -13.5 68.5t-41.5 25.5q-6 2 -8.5 4t-2.5 10v46q0 7 2.5 9.5t10.5 4.5q27 5 40 25.5t13 68.5v103q0 45 12.5 75.5t35 49.5t53 27.5t66.5 9.5q10 0 10 -9v-55q0 -11 -10 -12q-35 -2 -52 -21.5
t-17 -48.5v-125q0 -49 -19.5 -79t-47.5 -44v-4q27 -13 47 -43t20 -81v-155q0 -28 16 -48.5t52 -23.5q11 -1 11 -10v-59v0z" />
    <glyph glyph-name="bar" unicode="|" horiz-adv-x="218" 
d="M159 -120q0 -11 -4 -13.5t-14 -2.5h-60q-9 0 -13.5 2.5t-4.5 13.5v882q0 11 4.5 13.5t13.5 2.5h60q10 0 14 -2.5t4 -13.5v-882v0z" />
    <glyph glyph-name="braceright" unicode="}" horiz-adv-x="359" 
d="M303 304q0 -8 -2.5 -10t-8.5 -4q-28 -5 -41.5 -25.5t-13.5 -68.5v-134q0 -45 -13.5 -76.5t-37 -51t-54 -28.5t-63.5 -10q-9 0 -9 9v59q0 9 11 10q36 3 52 23.5t16 48.5v155q0 51 20 81t47 43v4q-28 14 -47.5 44t-19.5 79v125q0 29 -17 48.5t-52 21.5q-10 1 -10 12v55
q0 9 10 9q36 -1 66.5 -9.5t53 -27.5t35 -49.5t12.5 -75.5v-103q0 -48 13 -68.5t40 -25.5q8 -2 10.5 -4.5t2.5 -9.5v-46v0z" />
    <glyph glyph-name="asciitilde" unicode="~" horiz-adv-x="595" 
d="M530 316q-24 -41 -55 -64t-77 -23q-27 0 -53.5 9t-52 20.5t-49.5 20.5t-45 9q-43 0 -82 -41q-10 -10 -20 -2l-28 23q-11 9 -4 18q32 40 64 60.5t72 20.5q27 0 54.5 -9.5t53.5 -21t49.5 -21t44.5 -9.5q24 0 39 14.5t32 37.5q8 10 21 2l32 -22q7 -5 7.5 -10t-3.5 -12z" />
    <glyph glyph-name="exclamdown" unicode="&#xa1;" horiz-adv-x="275" 
d="M109 284q1 11 5.5 14.5t18.5 3.5h23q11 0 15 -3.5t5 -11.5l22 -452q1 -6 -3 -12t-14 -6h-76q-11 0 -15 6t-3 12zM68 452q0 31 21 52.5t53 21.5t53 -21t21 -53q0 -31 -21.5 -52.5t-52.5 -21.5q-32 0 -53 21t-21 53z" />
    <glyph glyph-name="cent" unicode="&#xa2;" horiz-adv-x="595" 
d="M350 -95q0 -9 -2.5 -11.5t-10.5 -2.5h-22q-7 0 -10.5 2.5t-3.5 11.5v85q-100 6 -153 73t-53 194q0 118 54.5 190.5t151.5 85.5v86q0 9 3.5 11.5t10.5 2.5h22q8 0 10.5 -2.5t2.5 -11.5v-83q73 -3 131 -35q15 -8 6 -23l-23 -48q-3 -6 -6.5 -8.5t-14.5 2.5q-20 8 -43.5 15
t-49.5 9v-374q29 2 57 9.5t47 18.5q10 5 14 2.5t7 -8.5l23 -48q9 -15 -6 -23q-32 -18 -69.5 -25.5t-72.5 -9.5v-85zM194 257q0 -33 5 -63t17 -54t32.5 -40.5t52.5 -22.5v366q-29 -7 -49 -24.5t-33 -42.5t-19 -55.5t-6 -63.5z" />
    <glyph glyph-name="sterling" unicode="&#xa3;" horiz-adv-x="595" 
d="M361 675q41 0 81 -8t74 -27q15 -8 6 -23l-22 -44q-3 -6 -6.5 -8.5t-14.5 2.5q-23 10 -53 17t-62 7q-60 0 -91 -24t-31 -69q0 -8 1.5 -22.5t3 -30t3.5 -30.5t4 -23h195q11 0 13.5 -4.5t2.5 -13.5v-36q0 -10 -2.5 -14t-13.5 -4h-185q3 -29 3 -61q0 -42 -8 -89t-40 -82h298
q11 0 13.5 -4.5t2.5 -13.5v-52q0 -10 -2.5 -14t-13.5 -4h-405q-21 0 -29 7.5t-8 20.5v18q0 21 7.5 30t21.5 20q22 17 35 36.5t20 39.5t9 40.5t2 40.5q0 9 -0.5 26.5t-2.5 40.5h-78q-11 0 -13.5 4t-2.5 14v36q0 9 2.5 13.5t13.5 4.5h69q-1 7 -3 20t-4.5 27t-4.5 28t-2 24
q0 48 16 83t44.5 57.5t68.5 33t88 10.5z" />
    <glyph glyph-name="currency" unicode="&#xa4;" horiz-adv-x="503" 
d="M33 277q0 36 11 68.5t31 59.5l-45 46q-12 12 -2 23l32 31q8 8 12 7t10 -7l47 -49q26 17 56.5 27t63.5 10q34 0 65 -10t57 -28l54 54q12 12 23 1l31 -31q8 -8 7 -12.5t-7 -11.5l-54 -53q19 -27 29.5 -58.5t10.5 -66.5t-10.5 -67.5t-29.5 -58.5l52 -52q8 -7 9.5 -12
t-6.5 -13l-31 -32q-11 -10 -24 4l-53 53q-26 -18 -57 -28t-66 -10q-65 0 -115 32l-53 -54q-7 -8 -12 -9t-13 7l-32 31q-11 11 4 24l51 51q-22 27 -34 61.5t-12 72.5zM124 276q0 -26 10 -49t27 -40t40 -27t49 -10t49 10t40 27t27 40t10 49t-10 49t-27 40t-40 27t-49 10
t-49 -10t-40 -27t-27 -40t-10 -49z" />
    <glyph glyph-name="yen" unicode="&#xa5;" horiz-adv-x="595" 
d="M95 301q-11 0 -14 4t-3 14v30q0 9 3 13.5t14 4.5h102l-140 293q-2 4 -0.5 8t8.5 4h77q8 0 12.5 -2t8.5 -11l74 -164l59 -141h4l57 141l71 164q5 13 21 13h76q6 0 7.5 -4t-0.5 -8l-138 -293h115q11 0 14 -4.5t3 -13.5v-30q0 -10 -3 -14t-14 -4h-414zM509 251q11 0 14 -4.5
t3 -13.5v-30q0 -10 -3 -14t-14 -4h-164v-170q0 -10 -3.5 -12.5t-13.5 -2.5h-63q-8 0 -12.5 2.5t-4.5 12.5v170h-153q-11 0 -14 4t-3 14v30q0 9 3 13.5t14 4.5h414z" />
    <glyph glyph-name="brokenbar" unicode="&#xa6;" horiz-adv-x="218" 
d="M159 -120q0 -11 -4 -13.5t-14 -2.5h-60q-9 0 -13.5 2.5t-4.5 13.5v396q0 11 4.5 13.5t13.5 2.5h60q10 0 14 -2.5t4 -13.5v-396zM159 361q0 -11 -4 -13.5t-14 -2.5h-60q-9 0 -13.5 2.5t-4.5 13.5v396q0 11 4.5 13.5t13.5 2.5h60q10 0 14 -2.5t4 -13.5v-396z" />
    <glyph glyph-name="section" unicode="&#xa7;" horiz-adv-x="558" 
d="M266 390q-20 17 -37 31t-25 24q-17 -11 -29 -29.5t-12 -40.5q0 -16 7.5 -31t24 -33t42 -40t61.5 -53q14 -13 35 -30t32 -24q14 11 24 28t10 34q0 21 -8.5 38t-25 35t-41.5 39.5t-58 51.5zM454 23q0 -29 -13.5 -56.5t-40 -48.5t-65.5 -33.5t-89 -12.5q-35 0 -73.5 7
t-67.5 22q-13 8 -6 20l21 44q2 5 5.5 7.5t12.5 -1.5q20 -9 48.5 -15.5t55.5 -6.5q57 0 83 21.5t26 50.5q0 25 -26 54.5t-69 62.5q-36 28 -70.5 56.5t-60.5 57.5t-42 58.5t-16 60.5q0 37 22 71.5t54 57.5q-14 18 -22.5 40.5t-8.5 44.5q0 30 11.5 57.5t35 48.5t59.5 33.5
t86 12.5q35 0 75.5 -7t69.5 -22q13 -8 6 -20l-21 -44q-2 -5 -5.5 -7.5t-12.5 1.5q-20 9 -48.5 15.5t-55.5 6.5q-57 0 -82 -17.5t-25 -46.5q0 -31 31.5 -62t77.5 -69q42 -34 75.5 -62.5t57 -55t36 -52.5t12.5 -54q0 -35 -22 -69t-55 -57q15 -20 25.5 -44.5t10.5 -47.5z" />
    <glyph glyph-name="dieresis" unicode="&#xa8;" horiz-adv-x="573" 
d="M440 670q0 -23 -18 -41t-41 -18q-24 0 -42.5 18t-18.5 41q0 11 5 21.5t13.5 19t19 13.5t22.5 5q23 0 41.5 -18t18.5 -41zM256 670q0 -23 -18.5 -41t-41.5 -18q-12 0 -22.5 5t-19 13t-13.5 19t-5 22t5 21.5t13.5 19t19 13.5t22.5 5q23 0 41.5 -18t18.5 -41z" />
    <glyph glyph-name="copyright" unicode="&#xa9;" horiz-adv-x="827" 
d="M417 103q-47 0 -83.5 18t-62 49.5t-39 75.5t-13.5 97q0 54 14 98t40 75.5t62.5 49t81.5 17.5q44 0 79 -14.5t60 -44.5q2 -4 3.5 -8.5t-6.5 -11.5l-33 -30q-9 -6 -20 5q-16 17 -35.5 26t-46.5 9q-62 0 -93.5 -47t-31.5 -124q0 -76 31.5 -123t92.5 -47q28 0 48.5 10
t36.5 27q9 11 18 3l35 -28q8 -6 6 -10.5t-4 -7.5q-25 -30 -58 -47t-82 -17zM777 350q0 -77 -27.5 -143t-76 -114.5t-114.5 -76t-143 -27.5t-143 27.5t-114.5 76t-76 114.5t-27.5 143t27.5 143t76 114.5t114.5 76t143 27.5t143 -27.5t114.5 -76t76 -114.5t27.5 -143zM722 350
q0 67 -23.5 124t-64.5 98t-97 64.5t-121 23.5t-121 -23.5t-97 -64.5t-64.5 -98t-23.5 -124t23.5 -124t64.5 -98t97 -64.5t121 -23.5t121 23.5t97 64.5t64.5 98t23.5 124z" />
    <glyph glyph-name="ordfeminine" unicode="&#xaa;" horiz-adv-x="376" 
d="M335 308q0 -19 -16 -25q-31 -14 -68 -18.5t-70 -4.5q-46 0 -76 9.5t-47 25t-24 36t-7 43.5q0 22 8 44t26 39t48 28t75 11h69v5q0 21 -13 36.5t-55 15.5q-23 0 -49.5 -3.5t-41.5 -8.5q-11 -2 -16 -1.5t-7 8.5l-10 37q-2 8 0 12t11 8q26 10 61 14t64 4q72 0 105 -31.5
t33 -88.5v-195zM252 426h-64q-11 0 -24.5 -1t-25.5 -6.5t-20.5 -16t-8.5 -28.5q0 -27 20 -36.5t52 -9.5q10 0 30.5 1t40.5 7v90z" />
    <glyph glyph-name="guillemotleft" unicode="&#xab;" horiz-adv-x="493" 
d="M158 242l121 -192q6 -11 2 -16.5t-15 -5.5h-58q-17 0 -24.5 5.5t-12.5 15.5l-96 154q-5 8 -10 20t-5 21q0 14 6 25.5t11 19.5l93 153q6 10 13 15.5t24 5.5h56q11 0 14.5 -7t-1.5 -15zM328 242l121 -192q6 -11 2 -16.5t-15 -5.5h-58q-17 0 -24.5 5.5t-12.5 15.5l-96 154
q-5 8 -10 20t-5 21q0 14 6 25.5t11 19.5l93 153q6 10 13 15.5t24 5.5h56q11 0 14.5 -7t-1.5 -15z" />
    <glyph glyph-name="logicalnot" unicode="&#xac;" horiz-adv-x="595" 
d="M68 297q-11 0 -13.5 4t-2.5 14v59q0 9 2.5 13.5t13.5 4.5h459q11 0 13.5 -4.5t2.5 -13.5v-263q0 -11 -4 -13.5t-14 -2.5h-62q-9 0 -13.5 2.5t-4.5 13.5v186h-377v0z" />
    <glyph glyph-name="sfthyphen" unicode="&#xad;" horiz-adv-x="365" 
d="M66 232q-11 0 -13.5 4t-2.5 14v76q0 9 2.5 13.5t13.5 4.5h233q11 0 13.5 -4.5t2.5 -13.5v-76q0 -10 -2.5 -14t-13.5 -4h-233v0z" />
    <glyph glyph-name="registered" unicode="&#xae;" horiz-adv-x="554" 
d="M504 478q0 -48 -18 -90t-48.5 -73t-72 -48.5t-88.5 -17.5q-48 0 -89.5 17.5t-72 48.5t-48 73t-17.5 90q0 49 17.5 91t48 73t72 49t89.5 18t89.5 -18t72 -49t48 -73t17.5 -91zM460 478q0 40 -14 75t-38.5 60.5t-58 40t-72.5 14.5t-73 -14.5t-58.5 -40t-38.5 -60.5t-14 -75
q0 -39 14 -73.5t38.5 -60t58.5 -40t73 -14.5t72.5 14.5t58 40t38.5 60t14 73.5zM228 353q0 -7 -2.5 -8.5t-8.5 -1.5h-27q-5 0 -7 1.5t-2 8.5v239q0 24 23 24h88q38 0 61.5 -22t23.5 -58q0 -21 -11 -38.5t-28 -28.5q15 -6 21 -16.5t9 -22.5l21 -75q2 -2 0.5 -7t-9.5 -5h-28
q-9 0 -10 8l-21 71q-5 20 -16.5 27t-29.5 7h-47v-103zM331 534q0 12 -8.5 25.5t-34.5 13.5h-60v-77h57q25 0 35.5 12t10.5 26z" />
    <glyph glyph-name="macron" unicode="&#xaf;" horiz-adv-x="335" 
d="M46 578q-11 0 -13.5 4t-2.5 14v42q0 9 2.5 13.5t13.5 4.5h243q11 0 13.5 -4.5t2.5 -13.5v-42q0 -10 -2.5 -14t-13.5 -4h-243v0z" />
    <glyph glyph-name="degree" unicode="&#xb0;" horiz-adv-x="373" 
d="M328 562q0 -31 -11 -57t-30 -44.5t-45 -28.5t-56 -10t-56 10t-44.5 28.5t-29.5 44.5t-11 57t11 56.5t30 44t45 29t56 10.5t56 -10.5t45 -29t29.5 -44t10.5 -56.5zM271 562q0 36 -24 61t-60 25q-35 0 -59 -25t-24 -61q0 -37 24 -62t59 -25q36 0 60 25t24 62z" />
    <glyph glyph-name="plusminus" unicode="&#xb1;" horiz-adv-x="595" 
d="M66 -1q-11 0 -13.5 3.5t-2.5 11.5v65q0 8 2.5 11.5t13.5 3.5h459q11 0 13.5 -3.5t2.5 -11.5v-65q0 -8 -2.5 -11.5t-13.5 -3.5h-459zM70 337q-11 0 -13.5 4t-2.5 14v59q0 9 2.5 13.5t13.5 4.5h181v185q0 11 4.5 13.5t13.5 2.5h62q10 0 14 -2.5t4 -13.5v-185h180
q11 0 13.5 -4.5t2.5 -13.5v-59q0 -10 -2.5 -14t-13.5 -4h-180v-186q0 -11 -4 -13.5t-14 -2.5h-62q-9 0 -13.5 2.5t-4.5 13.5v186h-181z" />
    <glyph glyph-name="twosuperior" unicode="&#xb2;" horiz-adv-x="387" 
d="M90 357q-35 0 -47.5 12.5t-12.5 40.5q0 20 14.5 47.5t43.5 55.5q26 26 53.5 43.5t45.5 28.5q38 21 53.5 35.5t15.5 32.5q0 44 -73 44q-23 0 -45.5 -8t-43.5 -21q-8 -5 -15.5 -7.5t-13.5 7.5l-20 33q-8 14 7 25q28 18 63.5 30t71.5 12q30 0 57.5 -7t48.5 -20.5t33.5 -35
t12.5 -49.5q0 -44 -31 -75t-78 -57q-32 -17 -63 -42t-46 -55h202q14 0 15.5 -4.5t1.5 -12.5v-36q0 -6 -1.5 -11.5t-15.5 -5.5h-233v0z" />
    <glyph glyph-name="threesuperior" unicode="&#xb3;" horiz-adv-x="387" 
d="M279 572q29 -10 44 -35t15 -57q0 -55 -43.5 -92t-119.5 -37q-38 0 -78.5 8.5t-70.5 31.5q-14 10 -5 22l22 34q5 6 10 6t15 -5q21 -11 48 -18.5t55 -7.5q46 0 65 19t19 44q0 20 -16 37.5t-61 17.5h-23q-11 0 -17.5 3t-6.5 19v17q0 14 5.5 19t17.5 5h19q35 0 54 14t19 38
q0 23 -22.5 32.5t-46.5 9.5q-26 0 -50 -6.5t-43 -16.5q-11 -5 -17 -6.5t-11 6.5l-19 34q-4 6 -3.5 11t8.5 11q31 21 70.5 30t77.5 9q30 0 55 -7t44 -21t29.5 -34t10.5 -46q0 -28 -13.5 -50.5t-36.5 -35.5v-3z" />
    <glyph glyph-name="acute" unicode="&#xb4;" horiz-adv-x="483" 
d="M214 592q-8 2 -9.5 5.5t3.5 13.5l66 158q2 5 6.5 8.5t14.5 1.5l77 -21q8 -2 9.5 -6.5t-2.5 -9.5l-110 -153q-6 -8 -10.5 -9.5t-12.5 0.5z" />
    <glyph glyph-name="mu" unicode="&#xb5;" horiz-adv-x="558" 
d="M65 510q0 11 4 13.5t14 2.5h62q9 0 13.5 -2.5t4.5 -13.5v-328q0 -27 4 -47t19 -32.5t44 -19t79 -6.5q11 0 33 1t53 6v426q0 11 4 13.5t14 2.5h62q9 0 13.5 -2.5t4.5 -13.5v-428q0 -72 -70 -84q-28 -5 -63 -6.5t-59 -1.5q-14 0 -33 1t-38.5 4t-37.5 7.5t-30 10.5v-199
q0 -11 -4 -13.5t-14 -2.5h-61q-9 0 -13.5 2.5t-4.5 13.5v696v0z" />
    <glyph glyph-name="mu" unicode="&#x3bc;" horiz-adv-x="558" 
d="M65 510q0 11 4 13.5t14 2.5h62q9 0 13.5 -2.5t4.5 -13.5v-328q0 -27 4 -47t19 -32.5t44 -19t79 -6.5q11 0 33 1t53 6v426q0 11 4 13.5t14 2.5h62q9 0 13.5 -2.5t4.5 -13.5v-428q0 -72 -70 -84q-28 -5 -63 -6.5t-59 -1.5q-14 0 -33 1t-38.5 4t-37.5 7.5t-30 10.5v-199
q0 -11 -4 -13.5t-14 -2.5h-61q-9 0 -13.5 2.5t-4.5 13.5v696v0z" />
    <glyph glyph-name="paragraph" unicode="&#xb6;" horiz-adv-x="519" 
d="M243 332q-41 0 -75 14t-59 39t-38.5 58.5t-13.5 72.5q0 37 14 71t39 59t59 40t74 15h89q10 0 10 -10v-348q0 -11 -10 -11h-89zM470 52q0 -45 -8.5 -81t-30.5 -61.5t-59.5 -41t-95.5 -18.5q-4 0 -7 1.5t-4 8.5l-4 48q-1 5 1.5 9t7.5 5q40 5 64.5 15t38 26t18.5 38t5 50
v640q0 5 3.5 7.5t8.5 2.5h51q11 0 11 -10v-639z" />
    <glyph glyph-name="periodcentered" unicode="&#xb7;" horiz-adv-x="268" 
d="M211 299q0 -33 -23 -56t-57 -23q-33 0 -55.5 22.5t-22.5 56.5q0 33 22.5 56t55.5 23q35 0 57.5 -22.5t22.5 -56.5z" />
    <glyph glyph-name="cedilla" unicode="&#xb8;" horiz-adv-x="492" 
d="M282 -56q28 -2 47 -9t30 -17.5t16 -24t5 -26.5q0 -14 -6.5 -28.5t-19.5 -26.5t-33 -19.5t-47 -7.5q-25 0 -49 4.5t-39 12.5q-12 4 -7 17l8 21q4 8 7 8.5t10 -1.5q29 -10 58 -10q49 0 49 32q0 17 -17 24t-37 7h-20t-10 4q-5 5 -4 11t3 14l29 83q2 7 10 7h35q6 0 6 -3
t-1 -5l-23 -67v0z" />
    <glyph glyph-name="onesuperior" unicode="&#xb9;" horiz-adv-x="387" 
d="M324 375q0 -11 -3 -14.5t-17 -3.5h-213q-13 0 -16 3.5t-3 14.5v35q0 11 3 14t16 3h65v259l-64 -11q-7 -2 -12 0.5t-5 12.5v32q0 10 2 14.5t13 7.5l98 25q19 5 34 -0.5t15 -25.5v-314h67q14 0 17 -3t3 -14v-35v0z" />
    <glyph glyph-name="ordmasculine" unicode="&#xba;" horiz-adv-x="388" 
d="M361 443q0 -88 -42.5 -135.5t-125.5 -47.5q-81 0 -123.5 45.5t-42.5 135.5q0 44 12.5 78t35 57t53.5 35t67 12q81 0 123.5 -47.5t42.5 -132.5zM279 441q0 22 -3.5 43t-12.5 36.5t-25.5 25t-41.5 9.5q-45 0 -66 -32t-21 -80q0 -51 17.5 -83t66.5 -32q25 0 41.5 9.5
t26.5 25t14 36t4 42.5z" />
    <glyph glyph-name="guillemotright" unicode="&#xbb;" horiz-adv-x="493" 
d="M217 441q-5 8 -1.5 15t14.5 7h56q17 0 24 -5.5t13 -15.5l93 -153q5 -8 11 -19.5t6 -25.5q0 -9 -5 -21t-10 -20l-96 -154q-5 -10 -12.5 -15.5t-24.5 -5.5h-58q-11 0 -15 5.5t2 16.5l121 192zM47 441q-5 8 -1.5 15t14.5 7h56q17 0 24 -5.5t13 -15.5l93 -153q5 -8 11 -19.5
t6 -25.5q0 -9 -5 -21t-10 -20l-96 -154q-5 -10 -12.5 -15.5t-24.5 -5.5h-58q-11 0 -15 5.5t2 16.5l121 192z" />
    <glyph glyph-name="onequarter" unicode="&#xbc;" horiz-adv-x="900" 
d="M501 85q-14 0 -27 5.5t-13 28.5v13q0 13 4 21t13 19l179 212q8 11 18.5 20t27.5 9h24q22 0 31 -8t9 -30v-222h38q13 0 15 -5.5t2 -14.5v-28q0 -8 -2 -13.5t-15 -5.5h-38v-69q0 -12 -5 -14.5t-16 -2.5h-40q-11 0 -15.5 2.5t-4.5 14.5v68h-185zM343 285q0 -11 -3 -14.5
t-17 -3.5h-213q-13 0 -16 3.5t-3 14.5v35q0 11 3 14t16 3h65v259l-64 -11q-7 -2 -12 0.5t-5 12.5v32q0 10 2 14.5t13 7.5l98 25q19 5 34 -0.5t15 -25.5v-314h67q14 0 17 -3t3 -14v-35zM285 -6q-5 -9 -10 -12.5t-14 -3.5h-35q-8 0 -11.5 3.5t1.5 12.5l409 684q5 9 9 12.5
t13 3.5h39q5 0 9 -3.5t-1 -12.5zM568 153h118l-1 144l-3 1l-115 -141z" />
    <glyph glyph-name="onehalf" unicode="&#xbd;" horiz-adv-x="900" 
d="M338 285q0 -11 -3 -14.5t-17 -3.5h-213q-13 0 -16 3.5t-3 14.5v35q0 11 3 14t16 3h65v259l-64 -11q-7 -2 -12 0.5t-5 12.5v32q0 10 2 14.5t13 7.5l98 25q19 5 34 -0.5t15 -25.5v-314h67q14 0 17 -3t3 -14v-35zM274 -6q-5 -9 -10 -12.5t-14 -3.5h-35q-8 0 -11.5 3.5
t1.5 12.5l409 684q5 9 9 12.5t13 3.5h39q5 0 9 -3.5t-1 -12.5zM590 0q-35 0 -47.5 12.5t-12.5 40.5q0 20 14.5 47.5t43.5 55.5q26 26 53.5 43.5t45.5 28.5q38 21 53.5 35.5t15.5 32.5q0 44 -73 44q-23 0 -45.5 -8t-43.5 -21q-8 -5 -15.5 -7.5t-13.5 7.5l-20 33q-8 14 7 25
q28 18 63.5 30t71.5 12q30 0 57.5 -7t48.5 -20.5t33.5 -35t12.5 -49.5q0 -44 -31 -75t-78 -57q-32 -17 -63 -42t-46 -55h202q14 0 15.5 -4.5t1.5 -12.5v-36q0 -6 -1.5 -11.5t-15.5 -5.5h-233z" />
    <glyph glyph-name="threequarters" unicode="&#xbe;" horiz-adv-x="900" 
d="M516 85q-14 0 -27 5.5t-13 28.5v13q0 13 4 21t13 19l179 212q8 11 18.5 20t27.5 9h24q22 0 31 -8t9 -30v-222h38q13 0 15 -5.5t2 -14.5v-28q0 -8 -2 -13.5t-15 -5.5h-38v-69q0 -12 -5 -14.5t-16 -2.5h-40q-11 0 -15.5 2.5t-4.5 14.5v68h-185zM307 482q29 -10 44 -35
t15 -57q0 -55 -43.5 -92t-119.5 -37q-38 0 -78.5 8.5t-70.5 31.5q-14 10 -5 22l22 34q5 6 10 6t15 -5q21 -11 48 -18.5t55 -7.5q46 0 65 19t19 44q0 20 -16 37.5t-61 17.5h-23q-11 0 -17.5 3t-6.5 19v17q0 14 5.5 19t17.5 5h19q35 0 54 14t19 38q0 23 -22.5 32.5t-46.5 9.5
q-26 0 -50 -6.5t-43 -16.5q-11 -5 -17 -6.5t-11 6.5l-19 34q-4 6 -3.5 11t8.5 11q31 21 70.5 30t77.5 9q30 0 55 -7t44 -21t29.5 -34t10.5 -46q0 -28 -13.5 -50.5t-36.5 -35.5v-3zM283 -6q-5 -9 -10 -12.5t-14 -3.5h-35q-8 0 -11.5 3.5t1.5 12.5l409 684q5 9 9 12.5t13 3.5
h39q5 0 9 -3.5t-1 -12.5zM583 153h118l-1 144l-3 1l-115 -141z" />
    <glyph glyph-name="questiondown" unicode="&#xbf;" horiz-adv-x="528" 
d="M272 -194q-48 0 -88.5 11t-70 33t-46 55.5t-16.5 77.5q0 31 10.5 57.5t28 49t39 42t42.5 37.5q18 15 34 29.5t28.5 30t20 31.5t7.5 34v19q0 6 3 10.5t12 4.5h69q15 0 15 -14v-25q0 -34 -12 -60.5t-31 -48t-42.5 -40t-45.5 -36.5q-31 -26 -53.5 -54t-22.5 -68
q0 -12 4.5 -27t17.5 -28t36 -22t61 -9t77.5 13t73.5 39q7 5 13.5 5.5t11.5 -6.5l31 -48q8 -13 -5 -23q-22 -18 -48.5 -31t-54 -21.5t-53 -13t-46.5 -4.5zM235 448q0 32 22 54.5t55 22.5q32 0 54.5 -22t22.5 -55q0 -32 -24 -54.5t-56 -22.5q-9 0 -21.5 3.5t-24.5 12t-20 23.5
t-8 38z" />
    <glyph glyph-name="Agrave" unicode="&#xc0;" horiz-adv-x="629" 
d="M524 0q-11 0 -17 2t-10 14l-47 142h-271l-47 -142q-3 -8 -8 -12t-16 -4h-77q-11 0 -14 6.5t0 14.5l222 637q9 26 20 34.5t37 9.5h33q30 0 41 -9.5t19 -34.5l223 -637q3 -8 0 -14.5t-13 -6.5h-75zM359 442l-45 142h-5l-42 -137l-61 -198h214zM344 750q-5 -5 -10 -6.5
t-15 2.5l-170 76q-5 2 -6.5 6.5t4.5 10.5l46 64q7 8 12 7t10 -5l144 -106q8 -6 8.5 -10t-4.5 -10z" />
    <glyph glyph-name="Aacute" unicode="&#xc1;" horiz-adv-x="629" 
d="M524 0q-11 0 -17 2t-10 14l-47 142h-271l-47 -142q-3 -8 -8 -12t-16 -4h-77q-11 0 -14 6.5t0 14.5l222 637q9 26 20 34.5t37 9.5h33q30 0 41 -9.5t19 -34.5l223 -637q3 -8 0 -14.5t-13 -6.5h-75zM359 442l-45 142h-5l-42 -137l-61 -198h214zM264 779q-5 6 -4.5 10t8.5 10
l144 106q5 4 10 5t12 -7l46 -64q6 -6 4.5 -10.5t-6.5 -6.5l-170 -76q-10 -4 -15 -2.5t-10 6.5z" />
    <glyph glyph-name="Acircumflex" unicode="&#xc2;" horiz-adv-x="629" 
d="M524 0q-11 0 -17 2t-10 14l-47 142h-271l-47 -142q-3 -8 -8 -12t-16 -4h-77q-11 0 -14 6.5t0 14.5l222 637q9 26 20 34.5t37 9.5h33q30 0 41 -9.5t19 -34.5l223 -637q3 -8 0 -14.5t-13 -6.5h-75zM359 442l-45 142h-5l-42 -137l-61 -198h214zM464 745q-4 -5 -9 -3.5
t-13 5.5l-131 62l-130 -64q-6 -3 -10 -2.5t-9 5.5l-18 21q-3 4 -4 8t4 8l127 102q22 18 41 18q7 0 18 -2.5t26 -15.5l122 -102q12 -9 2 -21z" />
    <glyph glyph-name="Atilde" unicode="&#xc3;" horiz-adv-x="629" 
d="M524 0q-11 0 -17 2t-10 14l-47 142h-271l-47 -142q-3 -8 -8 -12t-16 -4h-77q-11 0 -14 6.5t0 14.5l222 637q9 26 20 34.5t37 9.5h33q30 0 41 -9.5t19 -34.5l223 -637q3 -8 0 -14.5t-13 -6.5h-75zM359 442l-45 142h-5l-42 -137l-61 -198h214zM380 752q-18 0 -34.5 5.5
t-33 12t-32.5 12.5t-33 6q-13 0 -23.5 -8t-16.5 -19q-3 -5 -7.5 -7.5t-13.5 1.5l-34 15q-9 3 -12 6t1 11q17 30 43 52t65 22q18 0 34 -6t31.5 -13.5t30 -13.5t28.5 -6q15 0 26.5 8t16.5 20q4 8 7.5 9t11.5 -1l39 -11q17 -3 12 -15q-17 -37 -41 -58.5t-65 -21.5z" />
    <glyph glyph-name="Adieresis" unicode="&#xc4;" horiz-adv-x="629" 
d="M524 0q-11 0 -17 2t-10 14l-47 142h-271l-47 -142q-3 -8 -8 -12t-16 -4h-77q-11 0 -14 6.5t0 14.5l222 637q9 26 20 34.5t37 9.5h33q30 0 41 -9.5t19 -34.5l223 -637q3 -8 0 -14.5t-13 -6.5h-75zM359 442l-45 142h-5l-42 -137l-61 -198h214zM465 802q0 -23 -18 -41
t-41 -18q-24 0 -42.5 18t-18.5 41q0 11 5 21.5t13.5 19t19 13.5t22.5 5q23 0 41.5 -18t18.5 -41zM281 802q0 -23 -18.5 -41t-41.5 -18q-12 0 -22.5 5t-19 13t-13.5 19t-5 22t5 21.5t13.5 19t19 13.5t22.5 5q23 0 41.5 -18t18.5 -41z" />
    <glyph glyph-name="Aring" unicode="&#xc5;" horiz-adv-x="629" 
d="M524 0q-11 0 -17 2t-10 14l-47 142h-271l-47 -142q-3 -8 -8 -12t-16 -4h-77q-11 0 -14 6.5t0 14.5l222 637q9 26 20 34.5t37 9.5h33q30 0 41 -9.5t19 -34.5l223 -637q3 -8 0 -14.5t-13 -6.5h-75zM359 442l-45 142h-5l-42 -137l-61 -198h214zM417 818q0 -42 -29.5 -69.5
t-72.5 -27.5t-72.5 27t-29.5 70q0 42 29.5 69.5t72.5 27.5t72.5 -27.5t29.5 -69.5zM367 818q0 23 -14.5 37.5t-37.5 14.5t-37.5 -14.5t-14.5 -37.5t14.5 -37.5t37.5 -14.5t37.5 14.5t14.5 37.5z" />
    <glyph glyph-name="AE" unicode="&#xc6;" horiz-adv-x="863" 
d="M799 701q11 0 13.5 -4.5t2.5 -13.5v-57q0 -10 -2.5 -13.5t-13.5 -3.5h-245q-41 0 -59 -18.5t-18 -56.5v-118h292q11 0 13.5 -4t2.5 -14v-53q0 -9 -2.5 -13.5t-13.5 -4.5h-292v-159q0 -32 17.5 -53t59.5 -21h252q11 0 13.5 -4t2.5 -14v-58q0 -9 -2.5 -13.5t-13.5 -4.5
h-260q-88 0 -127 41.5t-44 118.5h-199l-49 -147q-4 -13 -19 -13h-80q-14 0 -9 14l199 579q7 20 18 39.5t30.5 34.5t48.5 24.5t72 9.5h412zM200 243h175v283q0 27 3 51t11 36q-43 0 -60.5 -12t-25.5 -35l-36 -110z" />
    <glyph glyph-name="Ccedilla" unicode="&#xc7;" horiz-adv-x="606" 
d="M348 -56q28 -2 47 -9t30 -17.5t16 -24t5 -26.5q0 -14 -6.5 -28.5t-19.5 -26.5t-33 -19.5t-47 -7.5q-25 0 -49 4.5t-39 12.5q-12 4 -7 17l8 21q4 8 7 8.5t10 -1.5q29 -10 58 -10q49 0 49 32q0 17 -17 24t-37 7h-20t-10 4q-5 5 -4 11t3 14l21 62q-122 12 -190 97t-68 252
q0 84 22.5 152t63 116.5t98 75t126.5 26.5q42 0 88.5 -7.5t97.5 -33.5q6 -3 8.5 -8.5t-3.5 -16.5l-25 -52q-4 -7 -7.5 -9.5t-12.5 1.5q-31 13 -67 21t-75 8q-55 0 -94.5 -23.5t-64.5 -62t-37 -87.5t-12 -100t10 -97t34.5 -81t65.5 -55.5t104 -20.5q44 0 82.5 10t71.5 24
q13 5 18.5 0.5t7.5 -9.5l21 -48q7 -14 4.5 -18.5t-9.5 -9.5q-46 -28 -102 -36.5t-106 -9.5l-15 -45v0z" />
    <glyph glyph-name="Egrave" unicode="&#xc8;" horiz-adv-x="588" 
d="M548 23q0 -11 -3.5 -17t-17.5 -6h-278q-51 0 -84.5 14.5t-53.5 38.5t-28 56t-8 67v348q0 35 9.5 67t30.5 56.5t54 39t80 14.5h274q14 0 17.5 -6t3.5 -17v-48q0 -13 -3.5 -17.5t-17.5 -4.5h-274q-38 0 -54.5 -16.5t-16.5 -52.5v-123h312q13 0 16.5 -5t3.5 -18v-42
q0 -11 -3.5 -17t-16.5 -6h-312v-166q0 -30 16.5 -49t54.5 -19h278q14 0 17.5 -5t3.5 -18v-48zM380 750q-5 -5 -10 -6.5t-15 2.5l-170 76q-5 2 -6.5 6.5t4.5 10.5l46 64q7 8 12 7t10 -5l144 -106q8 -6 8.5 -10t-4.5 -10z" />
    <glyph glyph-name="Eacute" unicode="&#xc9;" horiz-adv-x="588" 
d="M548 23q0 -11 -3.5 -17t-17.5 -6h-278q-51 0 -84.5 14.5t-53.5 38.5t-28 56t-8 67v348q0 35 9.5 67t30.5 56.5t54 39t80 14.5h274q14 0 17.5 -6t3.5 -17v-48q0 -13 -3.5 -17.5t-17.5 -4.5h-274q-38 0 -54.5 -16.5t-16.5 -52.5v-123h312q13 0 16.5 -5t3.5 -18v-42
q0 -11 -3.5 -17t-16.5 -6h-312v-166q0 -30 16.5 -49t54.5 -19h278q14 0 17.5 -5t3.5 -18v-48zM269 779q-5 6 -4.5 10t8.5 10l144 106q5 4 10 5t12 -7l46 -64q6 -6 4.5 -10.5t-6.5 -6.5l-170 -76q-10 -4 -15 -2.5t-10 6.5z" />
    <glyph glyph-name="Ecircumflex" unicode="&#xca;" horiz-adv-x="588" 
d="M548 23q0 -11 -3.5 -17t-17.5 -6h-278q-51 0 -84.5 14.5t-53.5 38.5t-28 56t-8 67v348q0 35 9.5 67t30.5 56.5t54 39t80 14.5h274q14 0 17.5 -6t3.5 -17v-48q0 -13 -3.5 -17.5t-17.5 -4.5h-274q-38 0 -54.5 -16.5t-16.5 -52.5v-123h312q13 0 16.5 -5t3.5 -18v-42
q0 -11 -3.5 -17t-16.5 -6h-312v-166q0 -30 16.5 -49t54.5 -19h278q14 0 17.5 -5t3.5 -18v-48zM483 745q-4 -5 -9 -3.5t-13 5.5l-131 62l-130 -64q-6 -3 -10 -2.5t-9 5.5l-18 21q-3 4 -4 8t4 8l127 102q22 18 41 18q7 0 18 -2.5t26 -15.5l122 -102q12 -9 2 -21z" />
    <glyph glyph-name="Edieresis" unicode="&#xcb;" horiz-adv-x="588" 
d="M548 23q0 -11 -3.5 -17t-17.5 -6h-278q-51 0 -84.5 14.5t-53.5 38.5t-28 56t-8 67v348q0 35 9.5 67t30.5 56.5t54 39t80 14.5h274q14 0 17.5 -6t3.5 -17v-48q0 -13 -3.5 -17.5t-17.5 -4.5h-274q-38 0 -54.5 -16.5t-16.5 -52.5v-123h312q13 0 16.5 -5t3.5 -18v-42
q0 -11 -3.5 -17t-16.5 -6h-312v-166q0 -30 16.5 -49t54.5 -19h278q14 0 17.5 -5t3.5 -18v-48zM485 800q0 -23 -18 -41t-41 -18q-24 0 -42.5 18t-18.5 41q0 11 5 21.5t13.5 19t19 13.5t22.5 5q23 0 41.5 -18t18.5 -41zM301 800q0 -23 -18.5 -41t-41.5 -18q-12 0 -22.5 5
t-19 13t-13.5 19t-5 22t5 21.5t13.5 19t19 13.5t22.5 5q23 0 41.5 -18t18.5 -41z" />
    <glyph glyph-name="Igrave" unicode="&#xcc;" horiz-adv-x="275" 
d="M86 679q0 14 6 17.5t17 3.5h58q13 0 18 -3.5t5 -17.5v-658q0 -14 -5 -17.5t-18 -3.5h-58q-11 0 -17 3.5t-6 17.5v658zM163 750q-5 -5 -10 -6.5t-15 2.5l-170 76q-5 2 -6.5 6.5t4.5 10.5l46 64q7 8 12 7t10 -5l144 -106q8 -6 8.5 -10t-4.5 -10z" />
    <glyph glyph-name="Iacute" unicode="&#xcd;" horiz-adv-x="275" 
d="M86 679q0 14 6 17.5t17 3.5h58q13 0 18 -3.5t5 -17.5v-658q0 -14 -5 -17.5t-18 -3.5h-58q-11 0 -17 3.5t-6 17.5v658zM108 779q-5 6 -4.5 10t8.5 10l144 106q5 4 10 5t12 -7l46 -64q6 -6 4.5 -10.5t-6.5 -6.5l-170 -76q-10 -4 -15 -2.5t-10 6.5z" />
    <glyph glyph-name="Icircumflex" unicode="&#xce;" horiz-adv-x="275" 
d="M86 679q0 14 6 17.5t17 3.5h58q13 0 18 -3.5t5 -17.5v-658q0 -14 -5 -17.5t-18 -3.5h-58q-11 0 -17 3.5t-6 17.5v658zM292 745q-4 -5 -9 -3.5t-13 5.5l-131 62l-130 -64q-6 -3 -10 -2.5t-9 5.5l-18 21q-3 4 -4 8t4 8l127 102q22 18 41 18q7 0 18 -2.5t26 -15.5l122 -102
q12 -9 2 -21z" />
    <glyph glyph-name="Idieresis" unicode="&#xcf;" horiz-adv-x="275" 
d="M86 679q0 14 6 17.5t17 3.5h58q13 0 18 -3.5t5 -17.5v-658q0 -14 -5 -17.5t-18 -3.5h-58q-11 0 -17 3.5t-6 17.5v658zM292 805q0 -23 -18 -41t-41 -18q-24 0 -42.5 18t-18.5 41q0 11 5 21.5t13.5 19t19 13.5t22.5 5q23 0 41.5 -18t18.5 -41zM108 805q0 -23 -18.5 -41
t-41.5 -18q-12 0 -22.5 5t-19 13t-13.5 19t-5 22t5 21.5t13.5 19t19 13.5t22.5 5q23 0 41.5 -18t18.5 -41z" />
    <glyph glyph-name="Eth" unicode="&#xd0;" horiz-adv-x="682" 
d="M129 0q-29 0 -41.5 12.5t-12.5 41.5v261h-49q-11 0 -13.5 4t-2.5 14v46q0 9 2.5 13.5t13.5 4.5h49v250q0 29 12.5 41.5t41.5 12.5l183 1q78 0 136.5 -24t98.5 -69.5t60 -110t20 -143.5q0 -78 -18 -143.5t-55.5 -112.5t-95 -73t-136.5 -26h-193zM520 353q0 53 -10.5 99.5
t-35 81t-66 54.5t-102.5 20h-125v-211h148q11 0 13.5 -4.5t2.5 -13.5v-46q0 -10 -2.5 -14t-13.5 -4h-148v-221h128q61 0 101.5 19.5t65 54t34.5 82t10 103.5z" />
    <glyph glyph-name="Ntilde" unicode="&#xd1;" horiz-adv-x="700" 
d="M524 680q0 14 6 17.5t17 3.5h55q13 0 18 -3.5t5 -17.5v-625q0 -28 -11.5 -41.5t-42.5 -13.5h-30q-24 0 -35 10t-25 33l-220 367l-82 142h-3v-531q0 -14 -5 -17.5t-18 -3.5h-55q-11 0 -17 3.5t-6 17.5v625q0 28 11.5 41.5t42.5 13.5h30q24 0 35 -10t25 -33l217 -363
l85 -146h3v531zM435 763q-18 0 -34.5 5.5t-33 12t-32.5 12.5t-33 6q-13 0 -23.5 -8t-16.5 -19q-3 -5 -7.5 -7.5t-13.5 1.5l-34 15q-9 3 -12 6t1 11q17 30 43 52t65 22q18 0 34 -6t31.5 -13.5t30 -13.5t28.5 -6q15 0 26.5 8t16.5 20q4 8 7.5 9t11.5 -1l39 -11q17 -3 12 -15
q-17 -37 -41 -58.5t-65 -21.5z" />
    <glyph glyph-name="Ograve" unicode="&#xd2;" horiz-adv-x="712" 
d="M657 353q0 -176 -77 -270t-227 -94q-147 0 -222.5 90.5t-75.5 269.5q0 87 23 154.5t63.5 113.5t95.5 70t119 24q74 0 130 -24.5t94 -71t57.5 -112.5t19.5 -150zM552 349q0 52 -8 101t-29 86t-58.5 59.5t-97.5 22.5q-51 0 -88.5 -21t-62 -57t-37 -84.5t-12.5 -102.5
q0 -61 9.5 -111t32 -85.5t60 -55t93.5 -19.5q57 0 95 22.5t61 59.5t32.5 85t9.5 100zM403 750q-5 -5 -10 -6.5t-15 2.5l-170 76q-5 2 -6.5 6.5t4.5 10.5l46 64q7 8 12 7t10 -5l144 -106q8 -6 8.5 -10t-4.5 -10z" />
    <glyph glyph-name="Oacute" unicode="&#xd3;" horiz-adv-x="712" 
d="M657 353q0 -176 -77 -270t-227 -94q-147 0 -222.5 90.5t-75.5 269.5q0 87 23 154.5t63.5 113.5t95.5 70t119 24q74 0 130 -24.5t94 -71t57.5 -112.5t19.5 -150zM552 349q0 52 -8 101t-29 86t-58.5 59.5t-97.5 22.5q-51 0 -88.5 -21t-62 -57t-37 -84.5t-12.5 -102.5
q0 -61 9.5 -111t32 -85.5t60 -55t93.5 -19.5q57 0 95 22.5t61 59.5t32.5 85t9.5 100zM311 779q-5 6 -4.5 10t8.5 10l144 106q5 4 10 5t12 -7l46 -64q6 -6 4.5 -10.5t-6.5 -6.5l-170 -76q-10 -4 -15 -2.5t-10 6.5z" />
    <glyph glyph-name="Ocircumflex" unicode="&#xd4;" horiz-adv-x="712" 
d="M657 353q0 -176 -77 -270t-227 -94q-147 0 -222.5 90.5t-75.5 269.5q0 87 23 154.5t63.5 113.5t95.5 70t119 24q74 0 130 -24.5t94 -71t57.5 -112.5t19.5 -150zM552 349q0 52 -8 101t-29 86t-58.5 59.5t-97.5 22.5q-51 0 -88.5 -21t-62 -57t-37 -84.5t-12.5 -102.5
q0 -61 9.5 -111t32 -85.5t60 -55t93.5 -19.5q57 0 95 22.5t61 59.5t32.5 85t9.5 100zM509 745q-4 -5 -9 -3.5t-13 5.5l-131 62l-130 -64q-6 -3 -10 -2.5t-9 5.5l-18 21q-3 4 -4 8t4 8l127 102q22 18 41 18q7 0 18 -2.5t26 -15.5l122 -102q12 -9 2 -21z" />
    <glyph glyph-name="Otilde" unicode="&#xd5;" horiz-adv-x="712" 
d="M657 353q0 -176 -77 -270t-227 -94q-147 0 -222.5 90.5t-75.5 269.5q0 87 23 154.5t63.5 113.5t95.5 70t119 24q74 0 130 -24.5t94 -71t57.5 -112.5t19.5 -150zM552 349q0 52 -8 101t-29 86t-58.5 59.5t-97.5 22.5q-51 0 -88.5 -21t-62 -57t-37 -84.5t-12.5 -102.5
q0 -61 9.5 -111t32 -85.5t60 -55t93.5 -19.5q57 0 95 22.5t61 59.5t32.5 85t9.5 100zM427 769q-18 0 -34.5 5.5t-33 12t-32.5 12.5t-33 6q-13 0 -23.5 -8t-16.5 -19q-3 -5 -7.5 -7.5t-13.5 1.5l-34 15q-9 3 -12 6t1 11q17 30 43 52t65 22q18 0 34 -6t31.5 -13.5t30 -13.5
t28.5 -6q15 0 26.5 8t16.5 20q4 8 7.5 9t11.5 -1l39 -11q17 -3 12 -15q-17 -37 -41 -58.5t-65 -21.5z" />
    <glyph glyph-name="Odieresis" unicode="&#xd6;" horiz-adv-x="712" 
d="M657 353q0 -176 -77 -270t-227 -94q-147 0 -222.5 90.5t-75.5 269.5q0 87 23 154.5t63.5 113.5t95.5 70t119 24q74 0 130 -24.5t94 -71t57.5 -112.5t19.5 -150zM552 349q0 52 -8 101t-29 86t-58.5 59.5t-97.5 22.5q-51 0 -88.5 -21t-62 -57t-37 -84.5t-12.5 -102.5
q0 -61 9.5 -111t32 -85.5t60 -55t93.5 -19.5q57 0 95 22.5t61 59.5t32.5 85t9.5 100zM512 810q0 -23 -18 -41t-41 -18q-24 0 -42.5 18t-18.5 41q0 11 5 21.5t13.5 19t19 13.5t22.5 5q23 0 41.5 -18t18.5 -41zM328 810q0 -23 -18.5 -41t-41.5 -18q-12 0 -22.5 5t-19 13
t-13.5 19t-5 22t5 21.5t13.5 19t19 13.5t22.5 5q23 0 41.5 -18t18.5 -41z" />
    <glyph glyph-name="multiply" unicode="&#xd7;" horiz-adv-x="595" 
d="M74 501q-8 8 -7 12.5t8 11.5l42 42q6 6 11 7.5t13 -6.5l156 -156l159 159q8 8 13 6.5t11 -7.5l44 -44q7 -7 8 -11.5t-7 -12.5l-159 -159l156 -156q8 -8 6.5 -13t-8.5 -11l-41 -42q-7 -7 -11.5 -8t-12.5 7l-156 155l-160 -159q-8 -8 -12.5 -7t-11.5 8l-44 44q-6 6 -7.5 11
t6.5 13l160 160l-156 156v0z" />
    <glyph glyph-name="Oslash" unicode="&#xd8;" horiz-adv-x="712" 
d="M657 353q0 -176 -77 -270t-227 -94q-122 0 -194 63l-40 -53q-5 -7 -9.5 -6.5t-9.5 4.5l-21 13q-10 7 -1 20l45 60q-68 91 -68 259q0 87 23 154.5t63.5 113.5t95.5 70t119 24q59 0 106 -16t83 -45l47 62q9 12 21 2l20 -14q5 -5 5.5 -8t-4.5 -11l-52 -68q75 -93 75 -260z
M552 349q0 50 -7 96t-26 83l-299 -395q23 -25 57 -38t81 -13q57 0 94 22.5t59.5 59.5t31.5 85t9 100zM159 353q0 -53 7 -96.5t24 -78.5l297 394q-22 22 -53.5 34t-74.5 12q-51 0 -88.5 -21t-62 -57t-37 -84.5t-12.5 -102.5z" />
    <glyph glyph-name="Ugrave" unicode="&#xd9;" horiz-adv-x="684" 
d="M74 679q0 14 6 17.5t17 3.5h60q13 0 18 -3.5t5 -17.5v-371q0 -58 7.5 -100.5t29 -71t62 -42.5t106.5 -14q17 0 49 1.5t73 9.5v588q0 14 6 17.5t17 3.5h60q13 0 16 -3.5t3 -17.5v-582q0 -40 -17.5 -65t-64.5 -33q-38 -6 -77 -8.5t-71 -2.5q-83 0 -141 16t-94 53t-52.5 98
t-16.5 151zM401 750q-5 -5 -10 -6.5t-15 2.5l-170 76q-5 2 -6.5 6.5t4.5 10.5l46 64q7 8 12 7t10 -5l144 -106q8 -6 8.5 -10t-4.5 -10z" />
    <glyph glyph-name="Uacute" unicode="&#xda;" horiz-adv-x="684" 
d="M74 679q0 14 6 17.5t17 3.5h60q13 0 18 -3.5t5 -17.5v-371q0 -58 7.5 -100.5t29 -71t62 -42.5t106.5 -14q17 0 49 1.5t73 9.5v588q0 14 6 17.5t17 3.5h60q13 0 16 -3.5t3 -17.5v-582q0 -40 -17.5 -65t-64.5 -33q-38 -6 -77 -8.5t-71 -2.5q-83 0 -141 16t-94 53t-52.5 98
t-16.5 151zM286 779q-5 6 -4.5 10t8.5 10l144 106q5 4 10 5t12 -7l46 -64q6 -6 4.5 -10.5t-6.5 -6.5l-170 -76q-10 -4 -15 -2.5t-10 6.5z" />
    <glyph glyph-name="Ucircumflex" unicode="&#xdb;" horiz-adv-x="684" 
d="M74 679q0 14 6 17.5t17 3.5h60q13 0 18 -3.5t5 -17.5v-371q0 -58 7.5 -100.5t29 -71t62 -42.5t106.5 -14q17 0 49 1.5t73 9.5v588q0 14 6 17.5t17 3.5h60q13 0 16 -3.5t3 -17.5v-582q0 -40 -17.5 -65t-64.5 -33q-38 -6 -77 -8.5t-71 -2.5q-83 0 -141 16t-94 53t-52.5 98
t-16.5 151zM497 745q-4 -5 -9 -3.5t-13 5.5l-131 62l-130 -64q-6 -3 -10 -2.5t-9 5.5l-18 21q-3 4 -4 8t4 8l127 102q22 18 41 18q7 0 18 -2.5t26 -15.5l122 -102q12 -9 2 -21z" />
    <glyph glyph-name="Udieresis" unicode="&#xdc;" horiz-adv-x="684" 
d="M74 679q0 14 6 17.5t17 3.5h60q13 0 18 -3.5t5 -17.5v-371q0 -58 7.5 -100.5t29 -71t62 -42.5t106.5 -14q17 0 49 1.5t73 9.5v588q0 14 6 17.5t17 3.5h60q13 0 16 -3.5t3 -17.5v-582q0 -40 -17.5 -65t-64.5 -33q-38 -6 -77 -8.5t-71 -2.5q-83 0 -141 16t-94 53t-52.5 98
t-16.5 151zM496 795q0 -23 -18 -41t-41 -18q-24 0 -42.5 18t-18.5 41q0 11 5 21.5t13.5 19t19 13.5t22.5 5q23 0 41.5 -18t18.5 -41zM312 795q0 -23 -18.5 -41t-41.5 -18q-12 0 -22.5 5t-19 13t-13.5 19t-5 22t5 21.5t13.5 19t19 13.5t22.5 5q23 0 41.5 -18t18.5 -41z" />
    <glyph glyph-name="Yacute" unicode="&#xdd;" horiz-adv-x="578" 
d="M342 277v-261q0 -11 -3.5 -13.5t-13.5 -2.5h-66q-9 0 -13.5 2.5t-4.5 13.5v261l-229 412q-2 4 -0.5 8t8.5 4h85q8 0 12.5 -2.5t9.5 -11.5l85 -162l79 -157h4l83 164l81 155q8 14 22 14h79q6 0 7.5 -4t-0.5 -8zM246 779q-5 6 -4.5 10t8.5 10l144 106q5 4 10 5t12 -7
l46 -64q6 -6 4.5 -10.5t-6.5 -6.5l-170 -76q-10 -4 -15 -2.5t-10 6.5z" />
    <glyph glyph-name="Thorn" unicode="&#xde;" horiz-adv-x="613" 
d="M75 684q0 11 4.5 13.5t13.5 2.5h69q10 0 14 -2.5t4 -13.5v-100h182q48 0 88.5 -15t69.5 -43t45.5 -66.5t16.5 -85.5q0 -27 -9 -64.5t-33.5 -71.5t-68.5 -57.5t-113 -23.5h-176l-1 -141q0 -16 -13 -16h-84l-5 3q-1 0 -1 0.5t-1 0.5l-2 6v674zM475 367q0 19 -6 40.5
t-21.5 39.5t-42 30t-68.5 12h-155v-241h158q71 0 103 33t32 86z" />
    <glyph glyph-name="germandbls" unicode="&#xdf;" horiz-adv-x="560" 
d="M66 491q0 54 14.5 96.5t41.5 72t65.5 45t86.5 15.5q54 0 92.5 -15.5t62.5 -40.5t35 -57.5t11 -65.5q0 -16 -4 -35.5t-13.5 -38.5t-25 -35.5t-37.5 -25.5v-3q24 -6 46 -23.5t38.5 -42.5t26 -55t9.5 -63q0 -61 -21 -107t-56 -76.5t-81.5 -45t-98.5 -12.5q-8 0 -10.5 2
t-2.5 10v50q0 7 2 10.5t10 3.5q70 0 114.5 40.5t44.5 116.5q0 25 -6.5 50.5t-22 46.5t-41.5 34t-66 13q-16 0 -25 6.5t-9 23.5v17q0 33 31 33q28 0 47.5 8.5t31.5 22t17.5 31.5t5.5 38q0 17 -5.5 35.5t-17.5 33.5t-32 25t-50 10q-32 0 -53 -12t-33.5 -31.5t-17.5 -43
t-5 -45.5v-491q0 -11 -4 -13.5t-14 -2.5h-62q-9 0 -13.5 2.5t-4.5 13.5z" />
    <glyph glyph-name="agrave" unicode="&#xe0;" horiz-adv-x="545" 
d="M480 52q0 -21 -17 -29q-45 -20 -98.5 -27t-101.5 -7q-65 0 -107.5 13.5t-67 36.5t-34 53.5t-9.5 63.5t11 65t36.5 57.5t68.5 41t106 15.5h114v18q0 22 -4.5 40t-17 31t-34.5 20t-57 7q-18 0 -37.5 -2t-38 -5t-35 -6.5t-27.5 -6.5q-10 -3 -15 -2t-7 10l-13 49q-4 14 9 19
q40 16 90.5 22.5t90.5 6.5q102 0 148.5 -46.5t46.5 -131.5v-306zM380 251h-107q-18 0 -40.5 -2.5t-42 -12t-33 -28.5t-13.5 -52q0 -49 32 -67.5t86 -18.5q8 0 22 0.5t30 2.5t33.5 5.5t32.5 8.5v164zM290 580q-8 -2 -12.5 -0.5t-10.5 9.5l-110 153q-4 5 -2.5 9.5t9.5 6.5
l77 21q10 2 14.5 -1.5t6.5 -8.5l66 -158q5 -10 3.5 -13.5t-9.5 -5.5z" />
    <glyph glyph-name="aacute" unicode="&#xe1;" horiz-adv-x="545" 
d="M480 52q0 -21 -17 -29q-45 -20 -98.5 -27t-101.5 -7q-65 0 -107.5 13.5t-67 36.5t-34 53.5t-9.5 63.5t11 65t36.5 57.5t68.5 41t106 15.5h114v18q0 22 -4.5 40t-17 31t-34.5 20t-57 7q-18 0 -37.5 -2t-38 -5t-35 -6.5t-27.5 -6.5q-10 -3 -15 -2t-7 10l-13 49q-4 14 9 19
q40 16 90.5 22.5t90.5 6.5q102 0 148.5 -46.5t46.5 -131.5v-306zM380 251h-107q-18 0 -40.5 -2.5t-42 -12t-33 -28.5t-13.5 -52q0 -49 32 -67.5t86 -18.5q8 0 22 0.5t30 2.5t33.5 5.5t32.5 8.5v164zM234 592q-8 2 -9.5 5.5t3.5 13.5l66 158q2 5 6.5 8.5t14.5 1.5l77 -21
q8 -2 9.5 -6.5t-2.5 -9.5l-110 -153q-6 -8 -10.5 -9.5t-12.5 0.5z" />
    <glyph glyph-name="acircumflex" unicode="&#xe2;" horiz-adv-x="545" 
d="M480 52q0 -21 -17 -29q-45 -20 -98.5 -27t-101.5 -7q-65 0 -107.5 13.5t-67 36.5t-34 53.5t-9.5 63.5t11 65t36.5 57.5t68.5 41t106 15.5h114v18q0 22 -4.5 40t-17 31t-34.5 20t-57 7q-18 0 -37.5 -2t-38 -5t-35 -6.5t-27.5 -6.5q-10 -3 -15 -2t-7 10l-13 49q-4 14 9 19
q40 16 90.5 22.5t90.5 6.5q102 0 148.5 -46.5t46.5 -131.5v-306zM380 251h-107q-18 0 -40.5 -2.5t-42 -12t-33 -28.5t-13.5 -52q0 -49 32 -67.5t86 -18.5q8 0 22 0.5t30 2.5t33.5 5.5t32.5 8.5v164zM441 576q-9 -7 -22 2l-130 91l-130 -94q-12 -7 -21 2l-21 22q-7 7 -1 15
l132 133q11 11 20.5 15t20.5 4q13 0 22.5 -3.5t21.5 -15.5l126 -131q13 -13 1 -23z" />
    <glyph glyph-name="atilde" unicode="&#xe3;" horiz-adv-x="545" 
d="M480 52q0 -21 -17 -29q-45 -20 -98.5 -27t-101.5 -7q-65 0 -107.5 13.5t-67 36.5t-34 53.5t-9.5 63.5t11 65t36.5 57.5t68.5 41t106 15.5h114v18q0 22 -4.5 40t-17 31t-34.5 20t-57 7q-18 0 -37.5 -2t-38 -5t-35 -6.5t-27.5 -6.5q-10 -3 -15 -2t-7 10l-13 49q-4 14 9 19
q40 16 90.5 22.5t90.5 6.5q102 0 148.5 -46.5t46.5 -131.5v-306zM380 251h-107q-18 0 -40.5 -2.5t-42 -12t-33 -28.5t-13.5 -52q0 -49 32 -67.5t86 -18.5q8 0 22 0.5t30 2.5t33.5 5.5t32.5 8.5v164zM350 619q-18 0 -34.5 5.5t-33 12t-32.5 12.5t-33 6q-13 0 -23.5 -8
t-16.5 -19q-3 -5 -7.5 -7.5t-13.5 1.5l-34 15q-9 3 -12 6t1 11q17 30 43 52t65 22q18 0 34 -6t31.5 -13.5t30 -13.5t28.5 -6q15 0 26.5 8t16.5 20q4 8 7.5 9t11.5 -1l39 -11q17 -3 12 -15q-17 -37 -41 -58.5t-65 -21.5z" />
    <glyph glyph-name="adieresis" unicode="&#xe4;" horiz-adv-x="545" 
d="M480 52q0 -21 -17 -29q-45 -20 -98.5 -27t-101.5 -7q-65 0 -107.5 13.5t-67 36.5t-34 53.5t-9.5 63.5t11 65t36.5 57.5t68.5 41t106 15.5h114v18q0 22 -4.5 40t-17 31t-34.5 20t-57 7q-18 0 -37.5 -2t-38 -5t-35 -6.5t-27.5 -6.5q-10 -3 -15 -2t-7 10l-13 49q-4 14 9 19
q40 16 90.5 22.5t90.5 6.5q102 0 148.5 -46.5t46.5 -131.5v-306zM380 251h-107q-18 0 -40.5 -2.5t-42 -12t-33 -28.5t-13.5 -52q0 -49 32 -67.5t86 -18.5q8 0 22 0.5t30 2.5t33.5 5.5t32.5 8.5v164zM441 670q0 -23 -18 -41t-41 -18q-24 0 -42.5 18t-18.5 41q0 11 5 21.5
t13.5 19t19 13.5t22.5 5q23 0 41.5 -18t18.5 -41zM257 670q0 -23 -18.5 -41t-41.5 -18q-12 0 -22.5 5t-19 13t-13.5 19t-5 22t5 21.5t13.5 19t19 13.5t22.5 5q23 0 41.5 -18t18.5 -41z" />
    <glyph glyph-name="aring" unicode="&#xe5;" horiz-adv-x="545" 
d="M480 52q0 -21 -17 -29q-45 -20 -98.5 -27t-101.5 -7q-65 0 -107.5 13.5t-67 36.5t-34 53.5t-9.5 63.5t11 65t36.5 57.5t68.5 41t106 15.5h114v18q0 22 -4.5 40t-17 31t-34.5 20t-57 7q-18 0 -37.5 -2t-38 -5t-35 -6.5t-27.5 -6.5q-10 -3 -15 -2t-7 10l-13 49q-4 14 9 19
q40 16 90.5 22.5t90.5 6.5q102 0 148.5 -46.5t46.5 -131.5v-306zM380 251h-107q-18 0 -40.5 -2.5t-42 -12t-33 -28.5t-13.5 -52q0 -49 32 -67.5t86 -18.5q8 0 22 0.5t30 2.5t33.5 5.5t32.5 8.5v164zM395 676q0 -42 -29.5 -69.5t-72.5 -27.5t-72.5 27t-29.5 70
q0 42 29.5 69.5t72.5 27.5t72.5 -27.5t29.5 -69.5zM345 676q0 23 -14.5 37.5t-37.5 14.5t-37.5 -14.5t-14.5 -37.5t14.5 -37.5t37.5 -14.5t37.5 14.5t14.5 37.5z" />
    <glyph glyph-name="ae" unicode="&#xe6;" horiz-adv-x="863" 
d="M602 536q53 0 93 -15t67 -43t41 -66.5t16 -84.5q1 -26 -6 -42.5t-18.5 -26t-27 -13.5t-31.5 -4h-272q1 -53 13 -86t33 -51t48 -24t58 -6q33 0 65.5 9t52.5 20q15 7 21 -6l24 -47q7 -16 -6 -23q-38 -23 -81 -30.5t-83 -7.5q-47 0 -86.5 14t-69.5 35q-23 -14 -51 -23
t-57 -15t-56.5 -8.5t-50.5 -2.5q-65 0 -103.5 15t-58.5 38t-25.5 50.5t-5.5 53.5q0 28 8.5 58.5t31 56t62 42t101.5 16.5h122q13 71 -18 101.5t-95 30.5q-36 0 -74 -6.5t-61 -13.5q-10 -3 -15 -2t-7 10l-13 49q-4 14 9 19q40 16 89 22.5t89 6.5q63 0 102.5 -18t61.5 -52
q31 34 73.5 52t90.5 18zM396 100q-15 29 -22.5 62t-8.5 79h-105q-20 0 -40.5 -4t-37 -14.5t-27.5 -29t-11 -47.5q0 -35 22 -57t76 -22q7 0 25 1t40 4.5t45.5 10t43.5 17.5zM726 319q0 23 -5.5 47t-19.5 43.5t-38.5 32t-61.5 12.5q-31 0 -55 -10.5t-40.5 -29t-26 -43
t-11.5 -52.5h258z" />
    <glyph glyph-name="ccedilla" unicode="&#xe7;" horiz-adv-x="482" 
d="M280 -56q28 -2 47 -9t30 -17.5t16 -24t5 -26.5q0 -14 -6.5 -28.5t-19.5 -26.5t-33 -19.5t-47 -7.5q-25 0 -49 4.5t-39 12.5q-12 4 -7 17l8 21q4 8 7 8.5t10 -1.5q29 -10 58 -10q49 0 49 32q0 17 -17 24t-37 7h-20t-10 4q-5 5 -4 11t3 14l21 61q-97 8 -148.5 75t-51.5 192
q0 63 16.5 114.5t47 88t74.5 56.5t99 20q41 0 78 -8t71 -27q15 -8 6 -23l-23 -48q-3 -6 -6.5 -8.5t-14.5 2.5q-23 10 -50 17t-59 7q-37 0 -63.5 -15.5t-43.5 -42t-25 -61t-8 -72.5q0 -37 6.5 -70.5t22 -58.5t43 -39.5t69.5 -14.5q33 0 65.5 8.5t53.5 19.5q10 5 14 2.5
t7 -8.5l23 -48q9 -15 -6 -23q-33 -19 -72 -26t-75 -9l-15 -46v0z" />
    <glyph glyph-name="egrave" unicode="&#xe8;" horiz-adv-x="542" 
d="M279 536q57 0 98.5 -15.5t68.5 -44t40 -69t13 -89.5q0 -26 -7 -42.5t-18 -26t-26.5 -13.5t-31.5 -4h-272q1 -44 13 -74t33 -48.5t48 -27t58 -8.5q33 0 65.5 9t52.5 20q15 7 21 -6l24 -47q7 -16 -6 -23q-38 -23 -81 -30.5t-83 -7.5q-115 0 -179.5 64.5t-64.5 206.5
q0 66 18 117t49.5 86.5t74 54t92.5 18.5zM406 310q0 30 -5.5 56t-19.5 45.5t-38.5 31t-62.5 11.5q-31 0 -55 -12.5t-40.5 -33t-26 -46t-10.5 -52.5h258zM295 580q-8 -2 -12.5 -0.5t-10.5 9.5l-110 153q-4 5 -2.5 9.5t9.5 6.5l77 21q10 2 14.5 -1.5t6.5 -8.5l66 -158
q5 -10 3.5 -13.5t-9.5 -5.5z" />
    <glyph glyph-name="eacute" unicode="&#xe9;" horiz-adv-x="542" 
d="M279 536q57 0 98.5 -15.5t68.5 -44t40 -69t13 -89.5q0 -26 -7 -42.5t-18 -26t-26.5 -13.5t-31.5 -4h-272q1 -44 13 -74t33 -48.5t48 -27t58 -8.5q33 0 65.5 9t52.5 20q15 7 21 -6l24 -47q7 -16 -6 -23q-38 -23 -81 -30.5t-83 -7.5q-115 0 -179.5 64.5t-64.5 206.5
q0 66 18 117t49.5 86.5t74 54t92.5 18.5zM406 310q0 30 -5.5 56t-19.5 45.5t-38.5 31t-62.5 11.5q-31 0 -55 -12.5t-40.5 -33t-26 -46t-10.5 -52.5h258zM234 592q-8 2 -9.5 5.5t3.5 13.5l66 158q2 5 6.5 8.5t14.5 1.5l77 -21q8 -2 9.5 -6.5t-2.5 -9.5l-110 -153
q-6 -8 -10.5 -9.5t-12.5 0.5z" />
    <glyph glyph-name="ecircumflex" unicode="&#xea;" horiz-adv-x="542" 
d="M279 536q57 0 98.5 -15.5t68.5 -44t40 -69t13 -89.5q0 -26 -7 -42.5t-18 -26t-26.5 -13.5t-31.5 -4h-272q1 -44 13 -74t33 -48.5t48 -27t58 -8.5q33 0 65.5 9t52.5 20q15 7 21 -6l24 -47q7 -16 -6 -23q-38 -23 -81 -30.5t-83 -7.5q-115 0 -179.5 64.5t-64.5 206.5
q0 66 18 117t49.5 86.5t74 54t92.5 18.5zM434 576q-9 -7 -22 2l-130 91l-130 -94q-12 -7 -21 2l-21 22q-7 7 -1 15l132 133q11 11 20.5 15t20.5 4q13 0 22.5 -3.5t21.5 -15.5l126 -131q13 -13 1 -23zM406 310q0 30 -5.5 56t-19.5 45.5t-38.5 31t-62.5 11.5q-31 0 -55 -12.5
t-40.5 -33t-26 -46t-10.5 -52.5h258z" />
    <glyph glyph-name="edieresis" unicode="&#xeb;" horiz-adv-x="542" 
d="M279 536q57 0 98.5 -15.5t68.5 -44t40 -69t13 -89.5q0 -26 -7 -42.5t-18 -26t-26.5 -13.5t-31.5 -4h-272q1 -44 13 -74t33 -48.5t48 -27t58 -8.5q33 0 65.5 9t52.5 20q15 7 21 -6l24 -47q7 -16 -6 -23q-38 -23 -81 -30.5t-83 -7.5q-115 0 -179.5 64.5t-64.5 206.5
q0 66 18 117t49.5 86.5t74 54t92.5 18.5zM406 310q0 30 -5.5 56t-19.5 45.5t-38.5 31t-62.5 11.5q-31 0 -55 -12.5t-40.5 -33t-26 -46t-10.5 -52.5h258zM436 670q0 -23 -18 -41t-41 -18q-24 0 -42.5 18t-18.5 41q0 11 5 21.5t13.5 19t19 13.5t22.5 5q23 0 41.5 -18t18.5 -41
zM252 670q0 -23 -18.5 -41t-41.5 -18q-12 0 -22.5 5t-19 13t-13.5 19t-5 22t5 21.5t13.5 19t19 13.5t22.5 5q23 0 41.5 -18t18.5 -41z" />
    <glyph glyph-name="igrave" unicode="&#xec;" horiz-adv-x="274" 
d="M186 16q0 -11 -4 -13.5t-14 -2.5h-62q-9 0 -13.5 2.5t-4.5 13.5v493q0 11 4.5 13.5t13.5 2.5h62q10 0 14 -2.5t4 -13.5v-493zM144 580q-8 -2 -12.5 -0.5t-10.5 9.5l-110 153q-4 5 -2.5 9.5t9.5 6.5l77 21q10 2 14.5 -1.5t6.5 -8.5l66 -158q5 -10 3.5 -13.5t-9.5 -5.5z
" />
    <glyph glyph-name="iacute" unicode="&#xed;" horiz-adv-x="274" 
d="M186 16q0 -11 -4 -13.5t-14 -2.5h-62q-9 0 -13.5 2.5t-4.5 13.5v493q0 11 4.5 13.5t13.5 2.5h62q10 0 14 -2.5t4 -13.5v-493zM113 592q-8 2 -9.5 5.5t3.5 13.5l66 158q2 5 6.5 8.5t14.5 1.5l77 -21q8 -2 9.5 -6.5t-2.5 -9.5l-110 -153q-6 -8 -10.5 -9.5t-12.5 0.5z" />
    <glyph glyph-name="icircumflex" unicode="&#xee;" horiz-adv-x="274" 
d="M186 16q0 -11 -4 -13.5t-14 -2.5h-62q-9 0 -13.5 2.5t-4.5 13.5v493q0 11 4.5 13.5t13.5 2.5h62q10 0 14 -2.5t4 -13.5v-493zM292 576q-9 -7 -22 2l-130 91l-130 -94q-12 -7 -21 2l-21 22q-7 7 -1 15l132 133q11 11 20.5 15t20.5 4q13 0 22.5 -3.5t21.5 -15.5l126 -131
q13 -13 1 -23z" />
    <glyph glyph-name="idieresis" unicode="&#xef;" horiz-adv-x="274" 
d="M186 16q0 -11 -4 -13.5t-14 -2.5h-62q-9 0 -13.5 2.5t-4.5 13.5v493q0 11 4.5 13.5t13.5 2.5h62q10 0 14 -2.5t4 -13.5v-493zM290 670q0 -23 -18 -41t-41 -18q-24 0 -42.5 18t-18.5 41q0 11 5 21.5t13.5 19t19 13.5t22.5 5q23 0 41.5 -18t18.5 -41zM106 670
q0 -23 -18.5 -41t-41.5 -18q-12 0 -22.5 5t-19 13t-13.5 19t-5 22t5 21.5t13.5 19t19 13.5t22.5 5q23 0 41.5 -18t18.5 -41z" />
    <glyph glyph-name="eth" unicode="&#xf0;" horiz-adv-x="553" 
d="M388 460q-13 34 -31.5 66.5t-42.5 57.5l-58 -51q-8 -7 -12.5 -5.5t-11.5 8.5l-12 13q-6 6 -7.5 11t6.5 12l56 49q-20 16 -41 31t-44 29q-11 7 -9 13t4 10l15 25q10 16 18 14.5t13 -3.5q58 -29 104 -66l65 57q8 7 12.5 5.5t11.5 -9.5l11 -12q7 -8 8.5 -12t-6.5 -11
l-62 -55q66 -67 99.5 -158t33.5 -190q0 -47 -9 -99t-35 -96t-72 -73t-121 -29q-68 0 -112 21.5t-69.5 55.5t-35 77t-9.5 87q0 43 13 86.5t41 78.5t71 56.5t102 21.5q26 0 54 -4t57 -15zM282 396q-39 0 -65.5 -14t-43 -37t-23.5 -51.5t-7 -56.5q0 -25 3.5 -54t16.5 -54
t38.5 -41.5t69.5 -16.5q43 0 71 17.5t44.5 45t22.5 61.5t6 68q0 30 -2.5 57t-7.5 45q-38 21 -70.5 26t-52.5 5z" />
    <glyph glyph-name="ntilde" unicode="&#xf1;" horiz-adv-x="568" 
d="M503 16q0 -11 -4 -13.5t-14 -2.5h-62q-9 0 -13.5 2.5t-4.5 13.5v264q0 43 -7 74.5t-25 52.5t-48 31.5t-76 10.5q-11 0 -33 -1t-53 -6v-426q0 -11 -4 -13.5t-14 -2.5h-62q-9 0 -13.5 2.5t-4.5 13.5v428q0 37 14 57.5t56 26.5q10 1 26 2.5t33.5 3t34 2t28.5 0.5
q64 0 110.5 -14t76.5 -44.5t44.5 -78.5t14.5 -116v-267zM325 619q-18 0 -34.5 5.5t-33 12t-32.5 12.5t-33 6q-13 0 -23.5 -8t-16.5 -19q-3 -5 -7.5 -7.5t-13.5 1.5l-34 15q-9 3 -12 6t1 11q17 30 43 52t65 22q18 0 34 -6t31.5 -13.5t30 -13.5t28.5 -6q15 0 26.5 8t16.5 20
q4 8 7.5 9t11.5 -1l39 -11q17 -3 12 -15q-17 -37 -41 -58.5t-65 -21.5z" />
    <glyph glyph-name="ograve" unicode="&#xf2;" horiz-adv-x="563" 
d="M518 265q0 -134 -60.5 -205t-178.5 -71q-115 0 -174.5 68.5t-59.5 204.5q0 66 18 117t50 86t75.5 53t93.5 18q116 0 176 -71.5t60 -199.5zM419 262q0 37 -5.5 72t-20.5 61.5t-41 42.5t-68 16q-36 0 -62.5 -15t-44 -40.5t-26 -60t-8.5 -73.5q0 -44 6.5 -79.5t22.5 -61
t42.5 -39.5t65.5 -14q40 0 66.5 16t42.5 42.5t23 61t7 71.5zM296 580q-8 -2 -12.5 -0.5t-10.5 9.5l-110 153q-4 5 -2.5 9.5t9.5 6.5l77 21q10 2 14.5 -1.5t6.5 -8.5l66 -158q5 -10 3.5 -13.5t-9.5 -5.5z" />
    <glyph glyph-name="oacute" unicode="&#xf3;" horiz-adv-x="563" 
d="M518 265q0 -134 -60.5 -205t-178.5 -71q-115 0 -174.5 68.5t-59.5 204.5q0 66 18 117t50 86t75.5 53t93.5 18q116 0 176 -71.5t60 -199.5zM419 262q0 37 -5.5 72t-20.5 61.5t-41 42.5t-68 16q-36 0 -62.5 -15t-44 -40.5t-26 -60t-8.5 -73.5q0 -44 6.5 -79.5t22.5 -61
t42.5 -39.5t65.5 -14q40 0 66.5 16t42.5 42.5t23 61t7 71.5zM243 592q-8 2 -9.5 5.5t3.5 13.5l66 158q2 5 6.5 8.5t14.5 1.5l77 -21q8 -2 9.5 -6.5t-2.5 -9.5l-110 -153q-6 -8 -10.5 -9.5t-12.5 0.5z" />
    <glyph glyph-name="ocircumflex" unicode="&#xf4;" horiz-adv-x="563" 
d="M518 265q0 -134 -60.5 -205t-178.5 -71q-115 0 -174.5 68.5t-59.5 204.5q0 66 18 117t50 86t75.5 53t93.5 18q116 0 176 -71.5t60 -199.5zM419 262q0 37 -5.5 72t-20.5 61.5t-41 42.5t-68 16q-36 0 -62.5 -15t-44 -40.5t-26 -60t-8.5 -73.5q0 -44 6.5 -79.5t22.5 -61
t42.5 -39.5t65.5 -14q40 0 66.5 16t42.5 42.5t23 61t7 71.5zM439 576q-9 -7 -22 2l-130 91l-130 -94q-12 -7 -21 2l-21 22q-7 7 -1 15l132 133q11 11 20.5 15t20.5 4q13 0 22.5 -3.5t21.5 -15.5l126 -131q13 -13 1 -23z" />
    <glyph glyph-name="otilde" unicode="&#xf5;" horiz-adv-x="563" 
d="M518 265q0 -134 -60.5 -205t-178.5 -71q-115 0 -174.5 68.5t-59.5 204.5q0 66 18 117t50 86t75.5 53t93.5 18q116 0 176 -71.5t60 -199.5zM419 262q0 37 -5.5 72t-20.5 61.5t-41 42.5t-68 16q-36 0 -62.5 -15t-44 -40.5t-26 -60t-8.5 -73.5q0 -44 6.5 -79.5t22.5 -61
t42.5 -39.5t65.5 -14q40 0 66.5 16t42.5 42.5t23 61t7 71.5zM349 619q-18 0 -34.5 5.5t-33 12t-32.5 12.5t-33 6q-13 0 -23.5 -8t-16.5 -19q-3 -5 -7.5 -7.5t-13.5 1.5l-34 15q-9 3 -12 6t1 11q17 30 43 52t65 22q18 0 34 -6t31.5 -13.5t30 -13.5t28.5 -6q15 0 26.5 8
t16.5 20q4 8 7.5 9t11.5 -1l39 -11q17 -3 12 -15q-17 -37 -41 -58.5t-65 -21.5z" />
    <glyph glyph-name="odieresis" unicode="&#xf6;" horiz-adv-x="563" 
d="M518 265q0 -134 -60.5 -205t-178.5 -71q-115 0 -174.5 68.5t-59.5 204.5q0 66 18 117t50 86t75.5 53t93.5 18q116 0 176 -71.5t60 -199.5zM419 262q0 37 -5.5 72t-20.5 61.5t-41 42.5t-68 16q-36 0 -62.5 -15t-44 -40.5t-26 -60t-8.5 -73.5q0 -44 6.5 -79.5t22.5 -61
t42.5 -39.5t65.5 -14q40 0 66.5 16t42.5 42.5t23 61t7 71.5zM431 670q0 -23 -18 -41t-41 -18q-24 0 -42.5 18t-18.5 41q0 11 5 21.5t13.5 19t19 13.5t22.5 5q23 0 41.5 -18t18.5 -41zM247 670q0 -23 -18.5 -41t-41.5 -18q-12 0 -22.5 5t-19 13t-13.5 19t-5 22t5 21.5
t13.5 19t19 13.5t22.5 5q23 0 41.5 -18t18.5 -41z" />
    <glyph glyph-name="divide" unicode="&#xf7;" horiz-adv-x="595" 
d="M380 527q0 -33 -23 -56t-57 -23q-33 0 -55.5 22.5t-22.5 56.5q0 33 22.5 56t55.5 23q35 0 57.5 -22.5t22.5 -56.5zM380 152q0 -34 -23 -56.5t-57 -22.5q-33 0 -55.5 22.5t-22.5 55.5t22.5 56.5t55.5 23.5q35 0 57.5 -22.5t22.5 -56.5zM68 297q-11 0 -13.5 4t-2.5 14v59
q0 9 2.5 13.5t13.5 4.5h459q11 0 13.5 -4.5t2.5 -13.5v-59q0 -10 -2.5 -14t-13.5 -4h-459z" />
    <glyph glyph-name="oslash" unicode="&#xf8;" horiz-adv-x="563" 
d="M87 4q-9 -9 -16 -1l-19 17q-10 8 0 17l36 42q-43 65 -43 183q0 66 18 117t50 86t75.5 53t93.5 18q49 0 88.5 -13.5t68.5 -39.5l37 43q5 5 9 4.5t9 -3.5l18 -18q5 -4 5 -7t-5 -9l-41 -47q47 -70 47 -181q0 -134 -60.5 -205t-178.5 -71q-101 0 -159 53zM419 262
q0 29 -3.5 56.5t-11.5 50.5l-223 -257q32 -41 99 -41q40 0 66.5 16t42.5 42.5t23 61t7 71.5zM143 265q0 -31 3 -57.5t11 -49.5l222 257q-15 18 -38.5 28.5t-56.5 10.5q-36 0 -62.5 -15t-44 -40.5t-26 -60t-8.5 -73.5z" />
    <glyph glyph-name="ugrave" unicode="&#xf9;" horiz-adv-x="558" 
d="M65 510q0 11 4 13.5t14 2.5h62q9 0 13.5 -2.5t4.5 -13.5v-264q0 -43 5.5 -74.5t21.5 -52.5t44.5 -31.5t74.5 -10.5q11 0 33 1t53 6v426q0 11 4 13.5t14 2.5h62q9 0 13.5 -2.5t4.5 -13.5v-428q0 -72 -70 -84q-28 -5 -63 -6.5t-59 -1.5q-65 0 -109.5 14t-73 44.5t-41 78.5
t-12.5 116v267zM294 580q-8 -2 -12.5 -0.5t-10.5 9.5l-110 153q-4 5 -2.5 9.5t9.5 6.5l77 21q10 2 14.5 -1.5t6.5 -8.5l66 -158q5 -10 3.5 -13.5t-9.5 -5.5z" />
    <glyph glyph-name="uacute" unicode="&#xfa;" horiz-adv-x="558" 
d="M65 510q0 11 4 13.5t14 2.5h62q9 0 13.5 -2.5t4.5 -13.5v-264q0 -43 5.5 -74.5t21.5 -52.5t44.5 -31.5t74.5 -10.5q11 0 33 1t53 6v426q0 11 4 13.5t14 2.5h62q9 0 13.5 -2.5t4.5 -13.5v-428q0 -72 -70 -84q-28 -5 -63 -6.5t-59 -1.5q-65 0 -109.5 14t-73 44.5t-41 78.5
t-12.5 116v267zM247 592q-8 2 -9.5 5.5t3.5 13.5l66 158q2 5 6.5 8.5t14.5 1.5l77 -21q8 -2 9.5 -6.5t-2.5 -9.5l-110 -153q-6 -8 -10.5 -9.5t-12.5 0.5z" />
    <glyph glyph-name="ucircumflex" unicode="&#xfb;" horiz-adv-x="558" 
d="M65 510q0 11 4 13.5t14 2.5h62q9 0 13.5 -2.5t4.5 -13.5v-264q0 -43 5.5 -74.5t21.5 -52.5t44.5 -31.5t74.5 -10.5q11 0 33 1t53 6v426q0 11 4 13.5t14 2.5h62q9 0 13.5 -2.5t4.5 -13.5v-428q0 -72 -70 -84q-28 -5 -63 -6.5t-59 -1.5q-65 0 -109.5 14t-73 44.5t-41 78.5
t-12.5 116v267zM441 576q-9 -7 -22 2l-130 91l-130 -94q-12 -7 -21 2l-21 22q-7 7 -1 15l132 133q11 11 20.5 15t20.5 4q13 0 22.5 -3.5t21.5 -15.5l126 -131q13 -13 1 -23z" />
    <glyph glyph-name="udieresis" unicode="&#xfc;" horiz-adv-x="558" 
d="M65 510q0 11 4 13.5t14 2.5h62q9 0 13.5 -2.5t4.5 -13.5v-264q0 -43 5.5 -74.5t21.5 -52.5t44.5 -31.5t74.5 -10.5q11 0 33 1t53 6v426q0 11 4 13.5t14 2.5h62q9 0 13.5 -2.5t4.5 -13.5v-428q0 -72 -70 -84q-28 -5 -63 -6.5t-59 -1.5q-65 0 -109.5 14t-73 44.5t-41 78.5
t-12.5 116v267zM440 670q0 -23 -18 -41t-41 -18q-24 0 -42.5 18t-18.5 41q0 11 5 21.5t13.5 19t19 13.5t22.5 5q23 0 41.5 -18t18.5 -41zM256 670q0 -23 -18.5 -41t-41.5 -18q-12 0 -22.5 5t-19 13t-13.5 19t-5 22t5 21.5t13.5 19t19 13.5t22.5 5q23 0 41.5 -18t18.5 -41z
" />
    <glyph glyph-name="yacute" unicode="&#xfd;" horiz-adv-x="499" 
d="M290 -84q-23 -69 -61.5 -97t-97.5 -28q-13 0 -35 2t-47 9q-16 4 -12 17l12 50q2 9 6 10.5t12 -0.5q17 -4 26 -5.5t23 -1.5q36 0 57 14t33 51l23 69h-21q-16 0 -28 5.5t-21 34.5l-148 468q-3 11 9 11h77q8 0 10.5 -2.5t4.5 -7.5l76 -247l54 -185h6l60 186l82 246
q2 5 4.5 7.5t10.5 2.5h74q12 0 9 -11zM230 592q-8 2 -9.5 5.5t3.5 13.5l66 158q2 5 6.5 8.5t14.5 1.5l77 -21q8 -2 9.5 -6.5t-2.5 -9.5l-110 -153q-6 -8 -10.5 -9.5t-12.5 0.5z" />
    <glyph glyph-name="thorn" unicode="&#xfe;" horiz-adv-x="565" 
d="M520 263q0 -56 -14.5 -105.5t-43.5 -87t-73 -59.5t-102 -22q-26 0 -56.5 3t-66.5 12v-190q0 -11 -4 -13.5t-14 -2.5h-63q-9 0 -13.5 2.5t-4.5 13.5v901q0 11 4 13.5t14 2.5h63q9 0 13.5 -2.5t4.5 -13.5v-190q31 6 61 8.5t59 2.5q61 0 106 -21t73.5 -58t42.5 -87t14 -107z
M418 263q0 103 -40 146t-110 43q-24 0 -54.5 -4.5t-49.5 -12.5v-346q35 -9 59.5 -12t47.5 -3q32 0 59 9.5t46.5 31.5t30.5 58t11 90z" />
    <glyph glyph-name="ydieresis" unicode="&#xff;" horiz-adv-x="499" 
d="M290 -84q-23 -69 -61.5 -97t-97.5 -28q-13 0 -35 2t-47 9q-16 4 -12 17l12 50q2 9 6 10.5t12 -0.5q17 -4 26 -5.5t23 -1.5q36 0 57 14t33 51l23 69h-21q-16 0 -28 5.5t-21 34.5l-148 468q-3 11 9 11h77q8 0 10.5 -2.5t4.5 -7.5l76 -247l54 -185h6l60 186l82 246
q2 5 4.5 7.5t10.5 2.5h74q12 0 9 -11zM400 670q0 -23 -18 -41t-41 -18q-24 0 -42.5 18t-18.5 41q0 11 5 21.5t13.5 19t19 13.5t22.5 5q23 0 41.5 -18t18.5 -41zM216 670q0 -23 -18.5 -41t-41.5 -18q-12 0 -22.5 5t-19 13t-13.5 19t-5 22t5 21.5t13.5 19t19 13.5t22.5 5
q23 0 41.5 -18t18.5 -41z" />
    <glyph glyph-name="Amacron" unicode="&#x100;" horiz-adv-x="629" 
d="M524 0q-11 0 -17 2t-10 14l-47 142h-271l-47 -142q-3 -8 -8 -12t-16 -4h-77q-11 0 -14 6.5t0 14.5l222 637q9 26 20 34.5t37 9.5h33q30 0 41 -9.5t19 -34.5l223 -637q3 -8 0 -14.5t-13 -6.5h-75zM359 442l-45 142h-5l-42 -137l-61 -198h214zM193 773q-11 0 -13.5 4
t-2.5 14v42q0 9 2.5 13.5t13.5 4.5h243q11 0 13.5 -4.5t2.5 -13.5v-42q0 -10 -2.5 -14t-13.5 -4h-243z" />
    <glyph glyph-name="amacron" unicode="&#x101;" horiz-adv-x="545" 
d="M480 52q0 -21 -17 -29q-45 -20 -98.5 -27t-101.5 -7q-65 0 -107.5 13.5t-67 36.5t-34 53.5t-9.5 63.5t11 65t36.5 57.5t68.5 41t106 15.5h114v18q0 22 -4.5 40t-17 31t-34.5 20t-57 7q-18 0 -37.5 -2t-38 -5t-35 -6.5t-27.5 -6.5q-10 -3 -15 -2t-7 10l-13 49q-4 14 9 19
q40 16 90.5 22.5t90.5 6.5q102 0 148.5 -46.5t46.5 -131.5v-306zM380 251h-107q-18 0 -40.5 -2.5t-42 -12t-33 -28.5t-13.5 -52q0 -49 32 -67.5t86 -18.5q8 0 22 0.5t30 2.5t33.5 5.5t32.5 8.5v164zM158 618q-11 0 -13.5 4t-2.5 14v42q0 9 2.5 13.5t13.5 4.5h243
q11 0 13.5 -4.5t2.5 -13.5v-42q0 -10 -2.5 -14t-13.5 -4h-243z" />
    <glyph glyph-name="Abreve" unicode="&#x102;" horiz-adv-x="629" 
d="M524 0q-11 0 -17 2t-10 14l-47 142h-271l-47 -142q-3 -8 -8 -12t-16 -4h-77q-11 0 -14 6.5t0 14.5l222 637q9 26 20 34.5t37 9.5h33q30 0 41 -9.5t19 -34.5l223 -637q3 -8 0 -14.5t-13 -6.5h-75zM359 442l-45 142h-5l-42 -137l-61 -198h214zM307 747q-26 0 -49.5 9
t-44.5 24t-39 34.5t-33 40.5q-2 3 -3.5 8t6.5 12l22 19q9 6 12 4.5t11 -7.5q30 -31 62 -49.5t60 -18.5q11 0 23.5 2.5t27.5 10.5t32.5 21.5t39.5 36.5q9 8 12.5 7t8.5 -5l22 -18q9 -8 7.5 -13t-3.5 -8q-45 -59 -90 -84.5t-84 -25.5z" />
    <glyph glyph-name="abreve" unicode="&#x103;" horiz-adv-x="545" 
d="M480 52q0 -21 -17 -29q-45 -20 -98.5 -27t-101.5 -7q-65 0 -107.5 13.5t-67 36.5t-34 53.5t-9.5 63.5t11 65t36.5 57.5t68.5 41t106 15.5h114v18q0 22 -4.5 40t-17 31t-34.5 20t-57 7q-18 0 -37.5 -2t-38 -5t-35 -6.5t-27.5 -6.5q-10 -3 -15 -2t-7 10l-13 49q-4 14 9 19
q40 16 90.5 22.5t90.5 6.5q102 0 148.5 -46.5t46.5 -131.5v-306zM380 251h-107q-18 0 -40.5 -2.5t-42 -12t-33 -28.5t-13.5 -52q0 -49 32 -67.5t86 -18.5q8 0 22 0.5t30 2.5t33.5 5.5t32.5 8.5v164zM287 589q-26 0 -49.5 9t-44.5 24t-39 34.5t-33 40.5q-2 3 -3.5 8t6.5 12
l22 19q9 6 12 4.5t11 -7.5q30 -31 62 -49.5t60 -18.5q11 0 23.5 2.5t27.5 10.5t32.5 21.5t39.5 36.5q9 8 12.5 7t8.5 -5l22 -18q9 -8 7.5 -13t-3.5 -8q-45 -59 -90 -84.5t-84 -25.5z" />
    <glyph glyph-name="Aogonek" unicode="&#x104;" horiz-adv-x="629" 
d="M500 5l1 1q-3 2 -4 10l-47 142h-271l-47 -142q-3 -8 -8 -12t-16 -4h-77q-11 0 -14 6.5t0 14.5l222 637q9 26 20 34.5t37 9.5h33q30 0 41 -9.5t19 -34.5l223 -637q3 -8 0 -14.5t-13 -6.5h-46q-34 -37 -49 -69t-15 -53q0 -20 13 -26.5t37 -6.5q7 0 21 2.5t28 5.5
q8 2 11 1.5t5 -8.5l7 -21q3 -8 0.5 -11.5t-7.5 -5.5q-14 -7 -41 -13.5t-54 -6.5q-52 0 -74 21.5t-23 52.5q0 19 6.5 40t18 40t28 35.5t35.5 27.5zM359 442l-45 142h-5l-42 -137l-61 -198h214z" />
    <glyph glyph-name="aogonek" unicode="&#x105;" horiz-adv-x="545" 
d="M480 52q0 -19 -13 -27q-32 -36 -46.5 -67t-14.5 -52q0 -20 13 -26.5t37 -6.5q7 0 21 2.5t28 5.5q8 2 11 1.5t5 -8.5l7 -21q3 -8 0.5 -11.5t-7.5 -5.5q-14 -7 -41 -13.5t-54 -6.5q-52 0 -74 21.5t-23 52.5q-1 27 11.5 56t33.5 52q-29 -5 -57 -7t-54 -2q-65 0 -107.5 13.5
t-67 36.5t-34 53.5t-9.5 63.5t11 65t36.5 57.5t68.5 41t106 15.5h114v18q0 22 -4.5 40t-17 31t-34.5 20t-57 7q-18 0 -37.5 -2t-38 -5t-35 -6.5t-27.5 -6.5q-10 -3 -15 -2t-7 10l-13 49q-4 14 9 19q40 16 90.5 22.5t90.5 6.5q102 0 148.5 -46.5t46.5 -131.5v-306zM380 251
h-107q-18 0 -40.5 -2.5t-42 -12t-33 -28.5t-13.5 -52q0 -49 32 -67.5t86 -18.5q8 0 22 0.5t30 2.5t33.5 5.5t32.5 8.5v164z" />
    <glyph glyph-name="Cacute" unicode="&#x106;" horiz-adv-x="606" 
d="M375 86q44 0 82.5 10t71.5 24q13 5 18.5 0.5t7.5 -9.5l21 -48q7 -14 4.5 -18.5t-9.5 -9.5q-48 -29 -105.5 -37.5t-108.5 -8.5q-71 0 -127 21t-95 64t-59.5 109t-20.5 157q0 84 22.5 152t63 116.5t98 75t126.5 26.5q42 0 88.5 -7.5t97.5 -33.5q6 -3 8.5 -8.5t-3.5 -16.5
l-25 -52q-4 -7 -7.5 -9.5t-12.5 1.5q-31 13 -67 21t-75 8q-55 0 -94.5 -23.5t-64.5 -62t-37 -87.5t-12 -100t10 -97t34.5 -81t65.5 -55.5t104 -20.5zM290 779q-5 6 -4.5 10t8.5 10l144 106q5 4 10 5t12 -7l46 -64q6 -6 4.5 -10.5t-6.5 -6.5l-170 -76q-10 -4 -15 -2.5
t-10 6.5z" />
    <glyph glyph-name="cacute" unicode="&#x107;" horiz-adv-x="482" 
d="M285 74q33 0 65.5 8.5t53.5 19.5q10 5 14 2.5t7 -8.5l23 -48q9 -15 -6 -23q-38 -22 -84.5 -29t-86.5 -7q-109 0 -167.5 67.5t-58.5 200.5q0 63 16.5 114.5t47 88t74.5 56.5t99 20q41 0 78 -8t71 -27q15 -8 6 -23l-23 -48q-3 -6 -6.5 -8.5t-14.5 2.5q-23 10 -50 17t-59 7
q-37 0 -63.5 -15.5t-43.5 -42t-25 -61t-8 -72.5q0 -37 6.5 -70.5t22 -58.5t43 -39.5t69.5 -14.5zM233 592q-8 2 -9.5 5.5t3.5 13.5l66 158q2 5 6.5 8.5t14.5 1.5l77 -21q8 -2 9.5 -6.5t-2.5 -9.5l-110 -153q-6 -8 -10.5 -9.5t-12.5 0.5z" />
    <glyph glyph-name="Ccircumflex" unicode="&#x108;" horiz-adv-x="606" 
d="M375 86q44 0 82.5 10t71.5 24q13 5 18.5 0.5t7.5 -9.5l21 -48q7 -14 4.5 -18.5t-9.5 -9.5q-48 -29 -105.5 -37.5t-108.5 -8.5q-71 0 -127 21t-95 64t-59.5 109t-20.5 157q0 84 22.5 152t63 116.5t98 75t126.5 26.5q42 0 88.5 -7.5t97.5 -33.5q6 -3 8.5 -8.5t-3.5 -16.5
l-25 -52q-4 -7 -7.5 -9.5t-12.5 1.5q-31 13 -67 21t-75 8q-55 0 -94.5 -23.5t-64.5 -62t-37 -87.5t-12 -100t10 -97t34.5 -81t65.5 -55.5t104 -20.5zM510 745q-4 -5 -9 -3.5t-13 5.5l-131 62l-130 -64q-6 -3 -10 -2.5t-9 5.5l-18 21q-3 4 -4 8t4 8l127 102q22 18 41 18
q7 0 18 -2.5t26 -15.5l122 -102q12 -9 2 -21z" />
    <glyph glyph-name="ccircumflex" unicode="&#x109;" horiz-adv-x="482" 
d="M285 74q33 0 65.5 8.5t53.5 19.5q10 5 14 2.5t7 -8.5l23 -48q9 -15 -6 -23q-38 -22 -84.5 -29t-86.5 -7q-109 0 -167.5 67.5t-58.5 200.5q0 63 16.5 114.5t47 88t74.5 56.5t99 20q41 0 78 -8t71 -27q15 -8 6 -23l-23 -48q-3 -6 -6.5 -8.5t-14.5 2.5q-23 10 -50 17t-59 7
q-37 0 -63.5 -15.5t-43.5 -42t-25 -61t-8 -72.5q0 -37 6.5 -70.5t22 -58.5t43 -39.5t69.5 -14.5zM429 580q-9 -7 -22 2l-130 91l-130 -94q-12 -7 -21 2l-21 22q-7 7 -1 15l132 133q11 11 20.5 15t20.5 4q13 0 22.5 -3.5t21.5 -15.5l126 -131q13 -13 1 -23z" />
    <glyph glyph-name="Cdotaccent" unicode="&#x10a;" horiz-adv-x="606" 
d="M375 86q44 0 82.5 10t71.5 24q13 5 18.5 0.5t7.5 -9.5l21 -48q7 -14 4.5 -18.5t-9.5 -9.5q-48 -29 -105.5 -37.5t-108.5 -8.5q-71 0 -127 21t-95 64t-59.5 109t-20.5 157q0 84 22.5 152t63 116.5t98 75t126.5 26.5q42 0 88.5 -7.5t97.5 -33.5q6 -3 8.5 -8.5t-3.5 -16.5
l-25 -52q-4 -7 -7.5 -9.5t-12.5 1.5q-31 13 -67 21t-75 8q-55 0 -94.5 -23.5t-64.5 -62t-37 -87.5t-12 -100t10 -97t34.5 -81t65.5 -55.5t104 -20.5zM424 816q0 -25 -19 -43.5t-44 -18.5q-26 0 -44.5 18.5t-18.5 43.5t18.5 43.5t44.5 18.5q25 0 44 -18.5t19 -43.5z" />
    <glyph glyph-name="cdotaccent" unicode="&#x10b;" horiz-adv-x="482" 
d="M285 74q33 0 65.5 8.5t53.5 19.5q10 5 14 2.5t7 -8.5l23 -48q9 -15 -6 -23q-38 -22 -84.5 -29t-86.5 -7q-109 0 -167.5 67.5t-58.5 200.5q0 63 16.5 114.5t47 88t74.5 56.5t99 20q41 0 78 -8t71 -27q15 -8 6 -23l-23 -48q-3 -6 -6.5 -8.5t-14.5 2.5q-23 10 -50 17t-59 7
q-37 0 -63.5 -15.5t-43.5 -42t-25 -61t-8 -72.5q0 -37 6.5 -70.5t22 -58.5t43 -39.5t69.5 -14.5zM345 672q0 -25 -19 -43.5t-44 -18.5q-26 0 -44.5 18.5t-18.5 43.5t18.5 43.5t44.5 18.5q25 0 44 -18.5t19 -43.5z" />
    <glyph glyph-name="Ccaron" unicode="&#x10c;" horiz-adv-x="606" 
d="M375 86q44 0 82.5 10t71.5 24q13 5 18.5 0.5t7.5 -9.5l21 -48q7 -14 4.5 -18.5t-9.5 -9.5q-48 -29 -105.5 -37.5t-108.5 -8.5q-71 0 -127 21t-95 64t-59.5 109t-20.5 157q0 84 22.5 152t63 116.5t98 75t126.5 26.5q42 0 88.5 -7.5t97.5 -33.5q6 -3 8.5 -8.5t-3.5 -16.5
l-25 -52q-4 -7 -7.5 -9.5t-12.5 1.5q-31 13 -67 21t-75 8q-55 0 -94.5 -23.5t-64.5 -62t-37 -87.5t-12 -100t10 -97t34.5 -81t65.5 -55.5t104 -20.5zM528 881q6 -5 6.5 -10.5t-7.5 -12.5l-126 -99q-14 -11 -25.5 -14t-18.5 -3q-8 0 -18.5 4t-22.5 13l-132 101q-6 7 1 15
l16 23q9 9 21 3l135 -64l130 63q8 4 12.5 5t9.5 -3z" />
    <glyph glyph-name="ccaron" unicode="&#x10d;" horiz-adv-x="482" 
d="M285 74q33 0 65.5 8.5t53.5 19.5q10 5 14 2.5t7 -8.5l23 -48q9 -15 -6 -23q-38 -22 -84.5 -29t-86.5 -7q-109 0 -167.5 67.5t-58.5 200.5q0 63 16.5 114.5t47 88t74.5 56.5t99 20q41 0 78 -8t71 -27q15 -8 6 -23l-23 -48q-3 -6 -6.5 -8.5t-14.5 2.5q-23 10 -50 17t-59 7
q-37 0 -63.5 -15.5t-43.5 -42t-25 -61t-8 -72.5q0 -37 6.5 -70.5t22 -58.5t43 -39.5t69.5 -14.5zM444 750q6 -5 6.5 -10t-7.5 -13l-126 -131q-12 -12 -21.5 -15.5t-22.5 -3.5q-11 0 -20.5 4t-20.5 15l-132 133q-7 9 1 15l22 20q9 9 21 2l129 -92l130 91q13 9 22 2z" />
    <glyph glyph-name="Dcaron" unicode="&#x10e;" horiz-adv-x="682" 
d="M521 353q0 53 -10.5 99.5t-35 81t-66 54.5t-102.5 20h-127v-514h130q61 0 101.5 19.5t65 54t34.5 82t10 103.5zM129 0q-29 0 -41.5 12.5t-12.5 41.5v593q0 29 12.5 41.5t41.5 12.5l183 1q78 0 136.5 -24t98.5 -69.5t60 -110t20 -143.5q0 -78 -18 -143.5t-55.5 -112.5
t-95 -73t-136.5 -26h-193zM478 881q6 -5 6.5 -10.5t-7.5 -12.5l-126 -99q-14 -11 -25.5 -14t-18.5 -3q-8 0 -18.5 4t-22.5 13l-132 101q-6 7 1 15l16 23q9 9 21 3l135 -64l130 63q8 4 12.5 5t9.5 -3z" />
    <glyph glyph-name="dcaron" unicode="&#x10f;" horiz-adv-x="689" 
d="M45 254q0 56 14 107t44 90t76 62t110 23q21 0 50.5 -2.5t61.5 -10.5v192q0 11 4 13.5t14 2.5h63q9 0 13.5 -2.5t4.5 -13.5v-670q0 -14 -13 -19q-54 -23 -109 -30t-99 -7q-64 0 -108.5 19t-72.5 53.5t-40.5 83.5t-12.5 109zM147 254q0 -99 39 -140t109 -41q24 0 55.5 4.5
t50.5 12.5v347q-35 9 -58.5 11.5t-46.5 2.5q-32 0 -59 -10.5t-47 -34t-31.5 -61t-11.5 -91.5zM642 505q-4 -11 -7 -14.5t-14 -3.5h-33q-22 0 -20 15l15 191q1 6 4.5 12t13.5 6h87q11 0 15.5 -6t2.5 -12z" />
    <glyph glyph-name="Dcroat" unicode="&#x110;" horiz-adv-x="682" 
d="M129 0q-29 0 -41.5 12.5t-12.5 41.5v261h-49q-11 0 -13.5 4t-2.5 14v46q0 9 2.5 13.5t13.5 4.5h49v250q0 29 12.5 41.5t41.5 12.5l183 1q78 0 136.5 -24t98.5 -69.5t60 -110t20 -143.5q0 -78 -18 -143.5t-55.5 -112.5t-95 -73t-136.5 -26h-193zM520 353q0 53 -10.5 99.5
t-35 81t-66 54.5t-102.5 20h-125v-211h148q11 0 13.5 -4.5t2.5 -13.5v-46q0 -10 -2.5 -14t-13.5 -4h-148v-221h128q61 0 101.5 19.5t65 54t34.5 82t10 103.5z" />
    <glyph glyph-name="dcroat" unicode="&#x111;" horiz-adv-x="565" 
d="M45 254q0 56 14 107t44 90t76 62t110 23q21 0 50.5 -2.5t61.5 -10.5v70h-162q-9 0 -11 3.5t-2 11.5v29q0 8 2 11.5t11 3.5h162v63q0 11 4 13.5t14 2.5h63q9 0 13.5 -2.5t4.5 -13.5v-63h47q9 0 11 -3.5t2 -11.5v-29q0 -8 -2 -11.5t-11 -3.5h-47v-548q0 -14 -13 -19
q-54 -23 -109 -30t-99 -7q-64 0 -108.5 19t-72.5 53.5t-40.5 83.5t-12.5 109zM147 254q0 -99 39 -140t109 -41q24 0 55.5 4.5t50.5 12.5v347q-35 9 -58.5 11.5t-46.5 2.5q-32 0 -59 -10.5t-47 -34t-31.5 -61t-11.5 -91.5z" />
    <glyph glyph-name="Emacron" unicode="&#x112;" horiz-adv-x="588" 
d="M548 23q0 -11 -3.5 -17t-17.5 -6h-278q-51 0 -84.5 14.5t-53.5 38.5t-28 56t-8 67v348q0 35 9.5 67t30.5 56.5t54 39t80 14.5h274q14 0 17.5 -6t3.5 -17v-48q0 -13 -3.5 -17.5t-17.5 -4.5h-274q-38 0 -54.5 -16.5t-16.5 -52.5v-123h312q13 0 16.5 -5t3.5 -18v-42
q0 -11 -3.5 -17t-16.5 -6h-312v-166q0 -30 16.5 -49t54.5 -19h278q14 0 17.5 -5t3.5 -18v-48zM219 771q-11 0 -13.5 4t-2.5 14v42q0 9 2.5 13.5t13.5 4.5h243q11 0 13.5 -4.5t2.5 -13.5v-42q0 -10 -2.5 -14t-13.5 -4h-243z" />
    <glyph glyph-name="emacron" unicode="&#x113;" horiz-adv-x="542" 
d="M279 536q57 0 98.5 -15.5t68.5 -44t40 -69t13 -89.5q0 -26 -7 -42.5t-18 -26t-26.5 -13.5t-31.5 -4h-272q1 -44 13 -74t33 -48.5t48 -27t58 -8.5q33 0 65.5 9t52.5 20q15 7 21 -6l24 -47q7 -16 -6 -23q-38 -23 -81 -30.5t-83 -7.5q-115 0 -179.5 64.5t-64.5 206.5
q0 66 18 117t49.5 86.5t74 54t92.5 18.5zM406 310q0 30 -5.5 56t-19.5 45.5t-38.5 31t-62.5 11.5q-31 0 -55 -12.5t-40.5 -33t-26 -46t-10.5 -52.5h258zM165 623q-11 0 -13.5 4t-2.5 14v42q0 9 2.5 13.5t13.5 4.5h243q11 0 13.5 -4.5t2.5 -13.5v-42q0 -10 -2.5 -14t-13.5 -4
h-243z" />
    <glyph glyph-name="Ebreve" unicode="&#x114;" horiz-adv-x="588" 
d="M548 23q0 -11 -3.5 -17t-17.5 -6h-278q-51 0 -84.5 14.5t-53.5 38.5t-28 56t-8 67v348q0 35 9.5 67t30.5 56.5t54 39t80 14.5h274q14 0 17.5 -6t3.5 -17v-48q0 -13 -3.5 -17.5t-17.5 -4.5h-274q-38 0 -54.5 -16.5t-16.5 -52.5v-123h312q13 0 16.5 -5t3.5 -18v-42
q0 -11 -3.5 -17t-16.5 -6h-312v-166q0 -30 16.5 -49t54.5 -19h278q14 0 17.5 -5t3.5 -18v-48zM338 747q-26 0 -49.5 9t-44.5 24t-39 34.5t-33 40.5q-2 3 -3.5 8t6.5 12l22 19q9 6 12 4.5t11 -7.5q30 -31 62 -49.5t60 -18.5q11 0 23.5 2.5t27.5 10.5t32.5 21.5t39.5 36.5
q9 8 12.5 7t8.5 -5l22 -18q9 -8 7.5 -13t-3.5 -8q-45 -59 -90 -84.5t-84 -25.5z" />
    <glyph glyph-name="ebreve" unicode="&#x115;" horiz-adv-x="542" 
d="M279 536q57 0 98.5 -15.5t68.5 -44t40 -69t13 -89.5q0 -26 -7 -42.5t-18 -26t-26.5 -13.5t-31.5 -4h-272q1 -44 13 -74t33 -48.5t48 -27t58 -8.5q33 0 65.5 9t52.5 20q15 7 21 -6l24 -47q7 -16 -6 -23q-38 -23 -81 -30.5t-83 -7.5q-115 0 -179.5 64.5t-64.5 206.5
q0 66 18 117t49.5 86.5t74 54t92.5 18.5zM406 310q0 30 -5.5 56t-19.5 45.5t-38.5 31t-62.5 11.5q-31 0 -55 -12.5t-40.5 -33t-26 -46t-10.5 -52.5h258zM273 585q-26 0 -49.5 9t-44.5 24t-39 34.5t-33 40.5q-2 3 -3.5 8t6.5 12l22 19q9 6 12 4.5t11 -7.5q30 -31 62 -49.5
t60 -18.5q11 0 23.5 2.5t27.5 10.5t32.5 21.5t39.5 36.5q9 8 12.5 7t8.5 -5l22 -18q9 -8 7.5 -13t-3.5 -8q-45 -59 -90 -84.5t-84 -25.5z" />
    <glyph glyph-name="Edotaccent" unicode="&#x116;" horiz-adv-x="588" 
d="M548 23q0 -11 -3.5 -17t-17.5 -6h-278q-51 0 -84.5 14.5t-53.5 38.5t-28 56t-8 67v348q0 35 9.5 67t30.5 56.5t54 39t80 14.5h274q14 0 17.5 -6t3.5 -17v-48q0 -13 -3.5 -17.5t-17.5 -4.5h-274q-38 0 -54.5 -16.5t-16.5 -52.5v-123h312q13 0 16.5 -5t3.5 -18v-42
q0 -11 -3.5 -17t-16.5 -6h-312v-166q0 -30 16.5 -49t54.5 -19h278q14 0 17.5 -5t3.5 -18v-48zM389 810q0 -25 -19 -43.5t-44 -18.5q-26 0 -44.5 18.5t-18.5 43.5t18.5 43.5t44.5 18.5q25 0 44 -18.5t19 -43.5z" />
    <glyph glyph-name="edotaccent" unicode="&#x117;" horiz-adv-x="542" 
d="M279 536q57 0 98.5 -15.5t68.5 -44t40 -69t13 -89.5q0 -26 -7 -42.5t-18 -26t-26.5 -13.5t-31.5 -4h-272q1 -44 13 -74t33 -48.5t48 -27t58 -8.5q33 0 65.5 9t52.5 20q15 7 21 -6l24 -47q7 -16 -6 -23q-38 -23 -81 -30.5t-83 -7.5q-115 0 -179.5 64.5t-64.5 206.5
q0 66 18 117t49.5 86.5t74 54t92.5 18.5zM406 310q0 30 -5.5 56t-19.5 45.5t-38.5 31t-62.5 11.5q-31 0 -55 -12.5t-40.5 -33t-26 -46t-10.5 -52.5h258zM341 670q0 -25 -19 -43.5t-44 -18.5q-26 0 -44.5 18.5t-18.5 43.5t18.5 43.5t44.5 18.5q25 0 44 -18.5t19 -43.5z" />
    <glyph glyph-name="Eogonek" unicode="&#x118;" horiz-adv-x="588" 
d="M548 23q0 -18 -10 -22q-33 -36 -48 -68t-15 -53q0 -20 13 -26.5t37 -6.5q7 0 21 2.5t28 5.5q8 2 11 1.5t5 -8.5l7 -21q3 -8 0.5 -11.5t-7.5 -5.5q-14 -7 -41 -13.5t-54 -6.5q-52 0 -74 21.5t-23 52.5q-1 36 20.5 74t56.5 62h-226q-51 0 -84.5 14.5t-53.5 38.5t-28 56
t-8 67v348q0 35 9.5 67t30.5 56.5t54 39t80 14.5h274q14 0 17.5 -6t3.5 -17v-48q0 -13 -3.5 -17.5t-17.5 -4.5h-274q-38 0 -54.5 -16.5t-16.5 -52.5v-123h312q13 0 16.5 -5t3.5 -18v-42q0 -11 -3.5 -17t-16.5 -6h-312v-166q0 -30 16.5 -49t54.5 -19h278q14 0 17.5 -5
t3.5 -18v-48v0z" />
    <glyph glyph-name="eogonek" unicode="&#x119;" horiz-adv-x="542" 
d="M279 536q57 0 98.5 -15.5t68.5 -44t40 -69t13 -89.5q0 -26 -7 -42.5t-18 -26t-26.5 -13.5t-31.5 -4h-272q1 -44 13 -74t33 -48.5t48 -27t58 -8.5q33 0 65.5 9t52.5 20q15 7 21 -6l24 -47q6 -16 -4 -22q-32 -36 -46.5 -67t-14.5 -52q0 -20 13 -26.5t37 -6.5q7 0 21 2.5
t28 5.5q8 2 11 1.5t5 -8.5l7 -21q3 -8 0.5 -11.5t-7.5 -5.5q-14 -7 -41 -13.5t-54 -6.5q-52 0 -74 21.5t-23 52.5q-1 26 10 52t29 49q-17 -2 -34 -3.5t-33 -1.5q-115 0 -179.5 64.5t-64.5 206.5q0 66 18 117t49.5 86.5t74 54t92.5 18.5zM406 310q0 30 -5.5 56t-19.5 45.5
t-38.5 31t-62.5 11.5q-31 0 -55 -12.5t-40.5 -33t-26 -46t-10.5 -52.5h258z" />
    <glyph glyph-name="Ecaron" unicode="&#x11a;" horiz-adv-x="588" 
d="M548 23q0 -11 -3.5 -17t-17.5 -6h-278q-51 0 -84.5 14.5t-53.5 38.5t-28 56t-8 67v348q0 35 9.5 67t30.5 56.5t54 39t80 14.5h274q14 0 17.5 -6t3.5 -17v-48q0 -13 -3.5 -17.5t-17.5 -4.5h-274q-38 0 -54.5 -16.5t-16.5 -52.5v-123h312q13 0 16.5 -5t3.5 -18v-42
q0 -11 -3.5 -17t-16.5 -6h-312v-166q0 -30 16.5 -49t54.5 -19h278q14 0 17.5 -5t3.5 -18v-48zM505 881q6 -5 6.5 -10.5t-7.5 -12.5l-126 -99q-14 -11 -25.5 -14t-18.5 -3q-8 0 -18.5 4t-22.5 13l-132 101q-6 7 1 15l16 23q9 9 21 3l135 -64l130 63q8 4 12.5 5t9.5 -3z" />
    <glyph glyph-name="ecaron" unicode="&#x11b;" horiz-adv-x="542" 
d="M279 536q57 0 98.5 -15.5t68.5 -44t40 -69t13 -89.5q0 -26 -7 -42.5t-18 -26t-26.5 -13.5t-31.5 -4h-272q1 -44 13 -74t33 -48.5t48 -27t58 -8.5q33 0 65.5 9t52.5 20q15 7 21 -6l24 -47q7 -16 -6 -23q-38 -23 -81 -30.5t-83 -7.5q-115 0 -179.5 64.5t-64.5 206.5
q0 66 18 117t49.5 86.5t74 54t92.5 18.5zM444 748q6 -5 6.5 -10t-7.5 -13l-126 -131q-12 -12 -21.5 -15.5t-22.5 -3.5q-11 0 -20.5 4t-20.5 15l-132 133q-7 9 1 15l22 20q9 9 21 2l129 -92l130 91q13 9 22 2zM406 310q0 30 -5.5 56t-19.5 45.5t-38.5 31t-62.5 11.5
q-31 0 -55 -12.5t-40.5 -33t-26 -46t-10.5 -52.5h258z" />
    <glyph glyph-name="Gcircumflex" unicode="&#x11c;" horiz-adv-x="658" 
d="M367 83q7 0 21.5 0.5t32.5 2.5t38 6t38 11v214q-7 1 -13 1h-13q-34 1 -73.5 -6t-77.5 -24q-11 -5 -16.5 -5.5t-10.5 8.5l-21 51q-4 8 -2.5 13.5t9.5 10.5q33 21 80.5 33t92.5 12q26 0 42 -1t31 -3q43 -8 58 -27t15 -62v-248q0 -19 -15 -29q-27 -17 -59.5 -27t-64 -15.5
t-58.5 -7.5t-44 -2q-71 0 -127 21t-95 64.5t-59.5 110t-20.5 157.5q0 84 21.5 152t61 116t97 74t129.5 26q42 0 92.5 -7.5t101.5 -33.5q6 -3 8.5 -8.5t-3.5 -16.5l-25 -57q-4 -7 -7.5 -9.5t-12.5 1.5q-31 13 -72 21t-80 8q-57 0 -96.5 -23t-63.5 -60.5t-34.5 -85.5
t-10.5 -99q0 -53 8.5 -99.5t31.5 -81.5t63 -55.5t103 -20.5zM502 745q-4 -5 -9 -3.5t-13 5.5l-131 62l-130 -64q-6 -3 -10 -2.5t-9 5.5l-18 21q-3 4 -4 8t4 8l127 102q22 18 41 18q7 0 18 -2.5t26 -15.5l122 -102q12 -9 2 -21z" />
    <glyph glyph-name="gcircumflex" unicode="&#x11d;" horiz-adv-x="565" 
d="M402 437q-27 8 -55.5 11.5t-51.5 3.5q-33 0 -61 -10.5t-47.5 -33.5t-30.5 -59t-11 -88q0 -94 36.5 -141t102.5 -47q18 0 49.5 3t68.5 14v347zM292 535q48 0 99.5 -7.5t96.5 -26.5q13 -5 13 -20v-437q0 -67 -16 -113.5t-48 -78t-80 -49t-113 -26.5q-8 -1 -12 1t-6 10
l-8 63q0 12 11 14q43 6 75 16t53.5 25.5t32 39t10.5 56.5v5q-32 -9 -67 -14t-61 -5q-59 0 -102 19.5t-70.5 55t-41 84.5t-13.5 108q0 61 14.5 112.5t45 89t77 58t110.5 20.5zM453 576q-9 -7 -22 2l-130 91l-130 -94q-12 -7 -21 2l-21 22q-7 7 -1 15l132 133q11 11 20.5 15
t20.5 4q13 0 22.5 -3.5t21.5 -15.5l126 -131q13 -13 1 -23z" />
    <glyph glyph-name="Gbreve" unicode="&#x11e;" horiz-adv-x="658" 
d="M367 83q7 0 21.5 0.5t32.5 2.5t38 6t38 11v214q-7 1 -13 1h-13q-34 1 -73.5 -6t-77.5 -24q-11 -5 -16.5 -5.5t-10.5 8.5l-21 51q-4 8 -2.5 13.5t9.5 10.5q33 21 80.5 33t92.5 12q26 0 42 -1t31 -3q43 -8 58 -27t15 -62v-248q0 -19 -15 -29q-27 -17 -59.5 -27t-64 -15.5
t-58.5 -7.5t-44 -2q-71 0 -127 21t-95 64.5t-59.5 110t-20.5 157.5q0 84 21.5 152t61 116t97 74t129.5 26q42 0 92.5 -7.5t101.5 -33.5q6 -3 8.5 -8.5t-3.5 -16.5l-25 -57q-4 -7 -7.5 -9.5t-12.5 1.5q-31 13 -72 21t-80 8q-57 0 -96.5 -23t-63.5 -60.5t-34.5 -85.5
t-10.5 -99q0 -53 8.5 -99.5t31.5 -81.5t63 -55.5t103 -20.5zM350 747q-26 0 -49.5 9t-44.5 24t-39 34.5t-33 40.5q-2 3 -3.5 8t6.5 12l22 19q9 6 12 4.5t11 -7.5q30 -31 62 -49.5t60 -18.5q11 0 23.5 2.5t27.5 10.5t32.5 21.5t39.5 36.5q9 8 12.5 7t8.5 -5l22 -18
q9 -8 7.5 -13t-3.5 -8q-45 -59 -90 -84.5t-84 -25.5z" />
    <glyph glyph-name="gbreve" unicode="&#x11f;" horiz-adv-x="565" 
d="M402 437q-27 8 -55.5 11.5t-51.5 3.5q-33 0 -61 -10.5t-47.5 -33.5t-30.5 -59t-11 -88q0 -94 36.5 -141t102.5 -47q18 0 49.5 3t68.5 14v347zM292 535q48 0 99.5 -7.5t96.5 -26.5q13 -5 13 -20v-437q0 -67 -16 -113.5t-48 -78t-80 -49t-113 -26.5q-8 -1 -12 1t-6 10
l-8 63q0 12 11 14q43 6 75 16t53.5 25.5t32 39t10.5 56.5v5q-32 -9 -67 -14t-61 -5q-59 0 -102 19.5t-70.5 55t-41 84.5t-13.5 108q0 61 14.5 112.5t45 89t77 58t110.5 20.5zM307 593q-26 0 -49.5 9t-44.5 24t-39 34.5t-33 40.5q-2 3 -3.5 8t6.5 12l22 19q9 6 12 4.5
t11 -7.5q30 -31 62 -49.5t60 -18.5q11 0 23.5 2.5t27.5 10.5t32.5 21.5t39.5 36.5q9 8 12.5 7t8.5 -5l22 -18q9 -8 7.5 -13t-3.5 -8q-45 -59 -90 -84.5t-84 -25.5z" />
    <glyph glyph-name="Gdotaccent" unicode="&#x120;" horiz-adv-x="658" 
d="M367 83q7 0 21.5 0.5t32.5 2.5t38 6t38 11v214q-7 1 -13 1h-13q-34 1 -73.5 -6t-77.5 -24q-11 -5 -16.5 -5.5t-10.5 8.5l-21 51q-4 8 -2.5 13.5t9.5 10.5q33 21 80.5 33t92.5 12q26 0 42 -1t31 -3q43 -8 58 -27t15 -62v-248q0 -19 -15 -29q-27 -17 -59.5 -27t-64 -15.5
t-58.5 -7.5t-44 -2q-71 0 -127 21t-95 64.5t-59.5 110t-20.5 157.5q0 84 21.5 152t61 116t97 74t129.5 26q42 0 92.5 -7.5t101.5 -33.5q6 -3 8.5 -8.5t-3.5 -16.5l-25 -57q-4 -7 -7.5 -9.5t-12.5 1.5q-31 13 -72 21t-80 8q-57 0 -96.5 -23t-63.5 -60.5t-34.5 -85.5
t-10.5 -99q0 -53 8.5 -99.5t31.5 -81.5t63 -55.5t103 -20.5zM425 810q0 -25 -19 -43.5t-44 -18.5q-26 0 -44.5 18.5t-18.5 43.5t18.5 43.5t44.5 18.5q25 0 44 -18.5t19 -43.5z" />
    <glyph glyph-name="gdotaccent" unicode="&#x121;" horiz-adv-x="565" 
d="M402 437q-27 8 -55.5 11.5t-51.5 3.5q-33 0 -61 -10.5t-47.5 -33.5t-30.5 -59t-11 -88q0 -94 36.5 -141t102.5 -47q18 0 49.5 3t68.5 14v347zM292 535q48 0 99.5 -7.5t96.5 -26.5q13 -5 13 -20v-437q0 -67 -16 -113.5t-48 -78t-80 -49t-113 -26.5q-8 -1 -12 1t-6 10
l-8 63q0 12 11 14q43 6 75 16t53.5 25.5t32 39t10.5 56.5v5q-32 -9 -67 -14t-61 -5q-59 0 -102 19.5t-70.5 55t-41 84.5t-13.5 108q0 61 14.5 112.5t45 89t77 58t110.5 20.5zM368 676q0 -25 -19 -43.5t-44 -18.5q-26 0 -44.5 18.5t-18.5 43.5t18.5 43.5t44.5 18.5
q25 0 44 -18.5t19 -43.5z" />
    <glyph glyph-name="Gcommaaccent" unicode="&#x122;" horiz-adv-x="658" 
d="M367 83q7 0 21.5 0.5t32.5 2.5t38 6t38 11v214q-7 1 -13 1h-13q-34 1 -73.5 -6t-77.5 -24q-11 -5 -16.5 -5.5t-10.5 8.5l-21 51q-4 8 -2.5 13.5t9.5 10.5q33 21 80.5 33t92.5 12q26 0 42 -1t31 -3q43 -8 58 -27t15 -62v-248q0 -19 -15 -29q-27 -17 -59.5 -27t-64 -15.5
t-58.5 -7.5t-44 -2q-71 0 -127 21t-95 64.5t-59.5 110t-20.5 157.5q0 84 21.5 152t61 116t97 74t129.5 26q42 0 92.5 -7.5t101.5 -33.5q6 -3 8.5 -8.5t-3.5 -16.5l-25 -57q-4 -7 -7.5 -9.5t-12.5 1.5q-31 13 -72 21t-80 8q-57 0 -96.5 -23t-63.5 -60.5t-34.5 -85.5
t-10.5 -99q0 -53 8.5 -99.5t31.5 -81.5t63 -55.5t103 -20.5zM370 -275q-4 -11 -7 -14.5t-14 -3.5h-33q-22 0 -20 15l15 191q1 6 4.5 12t13.5 6h87q11 0 15.5 -6t2.5 -12z" />
    <glyph glyph-name="gcommaaccent" unicode="&#x123;" horiz-adv-x="565" 
d="M290 773q4 9 7 12.5t12 3.5h34q19 0 18 -14l-14 -173q0 -5 -3.5 -10.5t-12.5 -5.5h-77q-10 0 -14 5.5t-2 10.5zM402 437q-27 8 -55.5 11.5t-51.5 3.5q-33 0 -61 -10.5t-47.5 -33.5t-30.5 -59t-11 -88q0 -94 36.5 -141t102.5 -47q18 0 49.5 3t68.5 14v347zM292 535
q48 0 99.5 -7.5t96.5 -26.5q13 -5 13 -20v-437q0 -67 -16 -113.5t-48 -78t-80 -49t-113 -26.5q-8 -1 -12 1t-6 10l-8 63q0 12 11 14q43 6 75 16t53.5 25.5t32 39t10.5 56.5v5q-32 -9 -67 -14t-61 -5q-59 0 -102 19.5t-70.5 55t-41 84.5t-13.5 108q0 61 14.5 112.5t45 89
t77 58t110.5 20.5z" />
    <glyph glyph-name="Hcircumflex" unicode="&#x124;" horiz-adv-x="694" 
d="M515 679q0 14 6 17.5t17 3.5h58q13 0 18 -3.5t5 -17.5v-658q0 -14 -5 -17.5t-18 -3.5h-58q-11 0 -17 3.5t-6 17.5v303h-336v-303q0 -14 -5 -17.5t-18 -3.5h-58q-11 0 -17 3.5t-6 17.5v658q0 14 6 17.5t17 3.5h58q13 0 18 -3.5t5 -17.5v-266h336v266zM497 750
q-4 -5 -9 -3.5t-13 5.5l-131 62l-130 -64q-6 -3 -10 -2.5t-9 5.5l-18 21q-3 4 -4 8t4 8l127 102q22 18 41 18q7 0 18 -2.5t26 -15.5l122 -102q12 -9 2 -21z" />
    <glyph glyph-name="hcircumflex" unicode="&#x125;" horiz-adv-x="568" 
d="M504 16q0 -11 -4.5 -13.5t-13.5 -2.5h-63q-10 0 -14 2.5t-4 13.5v280q0 154 -129 154q-29 0 -59.5 -4t-53.5 -14v-416q0 -11 -4 -13.5t-14 -2.5h-62q-9 0 -13.5 2.5t-4.5 13.5v699q0 11 4.5 13.5t13.5 2.5h62q10 0 14 -2.5t4 -13.5v-200q30 11 65.5 16t64.5 5
q56 0 96 -16.5t65.5 -47.5t37.5 -75.5t12 -99.5v-281zM271 745q-4 -5 -9 -3.5t-13 5.5l-131 62l-130 -64q-6 -3 -10 -2.5t-9 5.5l-18 21q-3 4 -4 8t4 8l127 102q22 18 41 18q7 0 18 -2.5t26 -15.5l122 -102q12 -9 2 -21z" />
    <glyph glyph-name="Hbar" unicode="&#x126;" horiz-adv-x="694" 
d="M30 539q-9 0 -11 3.5t-2 11.5v29q0 8 2 11.5t11 3.5h45v86q0 11 4.5 13.5t13.5 2.5h70q10 0 14 -2.5t4 -13.5v-86h335v86q0 11 4.5 13.5t13.5 2.5h67q10 0 14 -2.5t4 -13.5v-86h37q9 0 11 -3.5t2 -11.5v-29q0 -8 -2 -11.5t-11 -3.5h-37v-523q0 -11 -4 -13.5t-14 -2.5h-67
q-9 0 -13.5 2.5t-4.5 13.5v307h-335v-307q0 -11 -4 -13.5t-14 -2.5h-70q-9 0 -13.5 2.5t-4.5 13.5v523h-45zM516 413v126h-335v-126h335z" />
    <glyph glyph-name="hbar" unicode="&#x127;" horiz-adv-x="568" 
d="M25 590q-9 0 -11 3.5t-2 11.5v29q0 8 2 11.5t11 3.5h40v66q0 11 4.5 13.5t13.5 2.5h62q10 0 14 -2.5t4 -13.5v-66h200q9 0 11 -3.5t2 -11.5v-29q0 -8 -2 -11.5t-11 -3.5h-200v-106q30 11 65.5 16t64.5 5q56 0 96 -16.5t65.5 -47.5t37.5 -75.5t12 -99.5v-250
q0 -11 -4.5 -13.5t-13.5 -2.5h-63q-10 0 -14 2.5t-4 13.5v249q0 154 -129 154q-29 0 -59.5 -4t-53.5 -14v-385q0 -11 -4 -13.5t-14 -2.5h-62q-9 0 -13.5 2.5t-4.5 13.5v574h-40v0z" />
    <glyph glyph-name="Itilde" unicode="&#x128;" horiz-adv-x="275" 
d="M86 679q0 14 6 17.5t17 3.5h58q13 0 18 -3.5t5 -17.5v-658q0 -14 -5 -17.5t-18 -3.5h-58q-11 0 -17 3.5t-6 17.5v658zM204 763q-18 0 -34.5 5.5t-33 12t-32.5 12.5t-33 6q-13 0 -23.5 -8t-16.5 -19q-3 -5 -7.5 -7.5t-13.5 1.5l-34 15q-9 3 -12 6t1 11q17 30 43 52t65 22
q18 0 34 -6t31.5 -13.5t30 -13.5t28.5 -6q15 0 26.5 8t16.5 20q4 8 7.5 9t11.5 -1l39 -11q17 -3 12 -15q-17 -37 -41 -58.5t-65 -21.5z" />
    <glyph glyph-name="itilde" unicode="&#x129;" horiz-adv-x="274" 
d="M186 16q0 -11 -4 -13.5t-14 -2.5h-62q-9 0 -13.5 2.5t-4.5 13.5v493q0 11 4.5 13.5t13.5 2.5h62q10 0 14 -2.5t4 -13.5v-493zM206 623q-18 0 -34.5 5.5t-33 12t-32.5 12.5t-33 6q-13 0 -23.5 -8t-16.5 -19q-3 -5 -7.5 -7.5t-13.5 1.5l-34 15q-9 3 -12 6t1 11q17 30 43 52
t65 22q18 0 34 -6t31.5 -13.5t30 -13.5t28.5 -6q15 0 26.5 8t16.5 20q4 8 7.5 9t11.5 -1l39 -11q17 -3 12 -15q-17 -37 -41 -58.5t-65 -21.5z" />
    <glyph glyph-name="Imacron" unicode="&#x12a;" horiz-adv-x="275" 
d="M86 679q0 14 6 17.5t17 3.5h58q13 0 18 -3.5t5 -17.5v-658q0 -14 -5 -17.5t-18 -3.5h-58q-11 0 -17 3.5t-6 17.5v658zM15 783q-11 0 -13.5 4t-2.5 14v42q0 9 2.5 13.5t13.5 4.5h243q11 0 13.5 -4.5t2.5 -13.5v-42q0 -10 -2.5 -14t-13.5 -4h-243z" />
    <glyph glyph-name="imacron" unicode="&#x12b;" horiz-adv-x="274" 
d="M186 16q0 -11 -4 -13.5t-14 -2.5h-62q-9 0 -13.5 2.5t-4.5 13.5v493q0 11 4.5 13.5t13.5 2.5h62q10 0 14 -2.5t4 -13.5v-493zM16 588q-11 0 -13.5 4t-2.5 14v42q0 9 2.5 13.5t13.5 4.5h243q11 0 13.5 -4.5t2.5 -13.5v-42q0 -10 -2.5 -14t-13.5 -4h-243z" />
    <glyph glyph-name="Ibreve" unicode="&#x12c;" horiz-adv-x="275" 
d="M86 679q0 14 6 17.5t17 3.5h58q13 0 18 -3.5t5 -17.5v-658q0 -14 -5 -17.5t-18 -3.5h-58q-11 0 -17 3.5t-6 17.5v658zM134 737q-26 0 -49.5 9t-44.5 24t-39 34.5t-33 40.5q-2 3 -3.5 8t6.5 12l22 19q9 6 12 4.5t11 -7.5q30 -31 62 -49.5t60 -18.5q11 0 23.5 2.5
t27.5 10.5t32.5 21.5t39.5 36.5q9 8 12.5 7t8.5 -5l22 -18q9 -8 7.5 -13t-3.5 -8q-45 -59 -90 -84.5t-84 -25.5z" />
    <glyph glyph-name="ibreve" unicode="&#x12d;" horiz-adv-x="274" 
d="M186 16q0 -11 -4 -13.5t-14 -2.5h-62q-9 0 -13.5 2.5t-4.5 13.5v493q0 11 4.5 13.5t13.5 2.5h62q10 0 14 -2.5t4 -13.5v-493zM135 581q-26 0 -49.5 9t-44.5 24t-39 34.5t-33 40.5q-2 3 -3.5 8t6.5 12l22 19q9 6 12 4.5t11 -7.5q30 -31 62 -49.5t60 -18.5q11 0 23.5 2.5
t27.5 10.5t32.5 21.5t39.5 36.5q9 8 12.5 7t8.5 -5l22 -18q9 -8 7.5 -13t-3.5 -8q-45 -59 -90 -84.5t-84 -25.5z" />
    <glyph glyph-name="Iogonek" unicode="&#x12e;" horiz-adv-x="275" 
d="M86 679q0 14 6 17.5t17 3.5h58q13 0 18 -3.5t5 -17.5v-658q0 -12 -5 -17q0 -1 -2 -3q-34 -37 -49 -69t-15 -53q0 -20 13 -26.5t37 -6.5q7 0 21 2.5t28 5.5q8 2 11 1.5t5 -8.5l7 -21q3 -8 0.5 -11.5t-7.5 -5.5q-14 -7 -41 -13.5t-54 -6.5q-52 0 -74 21.5t-23 52.5
q-1 37 21 75.5t57 61.5h-11q-11 0 -17 3.5t-6 17.5v658z" />
    <glyph glyph-name="iogonek" unicode="&#x12f;" horiz-adv-x="254" 
d="M183 16q0 -13 -9 -16q-32 -35 -46 -66t-14 -52q0 -20 13 -26.5t37 -6.5q7 0 21 2.5t28 5.5q8 2 11 1.5t5 -8.5l7 -21q3 -8 0.5 -11.5t-7.5 -5.5q-14 -7 -41 -13.5t-54 -6.5q-52 0 -74 21.5t-23 52.5q-1 35 20 72.5t54 61.5h-8q-9 0 -13.5 2.5t-4.5 13.5v493
q0 11 4.5 13.5t13.5 2.5h62q10 0 14 -2.5t4 -13.5v-493zM200 662q0 -27 -19 -46t-46 -19t-46 19t-19 46t19 46t46 19t46 -19t19 -46z" />
    <glyph glyph-name="Idotaccent" unicode="&#x130;" horiz-adv-x="275" 
d="M86 679q0 14 6 17.5t17 3.5h58q13 0 18 -3.5t5 -17.5v-658q0 -14 -5 -17.5t-18 -3.5h-58q-11 0 -17 3.5t-6 17.5v658zM199 856q0 -25 -19 -43.5t-44 -18.5q-26 0 -44.5 18.5t-18.5 43.5t18.5 43.5t44.5 18.5q25 0 44 -18.5t19 -43.5z" />
    <glyph glyph-name="dotlessi" unicode="&#x131;" horiz-adv-x="274" 
d="M186 16q0 -11 -4 -13.5t-14 -2.5h-62q-9 0 -13.5 2.5t-4.5 13.5v493q0 11 4.5 13.5t13.5 2.5h62q10 0 14 -2.5t4 -13.5v-493v0z" />
    <glyph glyph-name="IJ" unicode="&#x132;" horiz-adv-x="777" 
d="M76 679q0 14 6 17.5t17 3.5h58q13 0 18 -3.5t5 -17.5v-658q0 -14 -5 -17.5t-18 -3.5h-58q-11 0 -17 3.5t-6 17.5v658zM599 679q0 14 6 17.5t17 3.5h58q13 0 18 -3.5t5 -17.5v-102v-73.5t-0.5 -56t-0.5 -49.5v-54v-69q0 -67 -15 -120t-47.5 -90t-82 -56.5t-118.5 -19.5
q-22 0 -48 2.5t-54 8t-55 15t-51 23.5q-7 5 -9.5 9.5t3.5 16.5l26 52q7 14 24 5q33 -16 77 -27t90 -11q86 0 122 49.5t36 147.5z" />
    <glyph glyph-name="ij" unicode="&#x133;" horiz-adv-x="504" 
d="M195 662q0 -27 -19 -46t-46 -19t-46 19t-19 46t19 46t46 19t46 -19t19 -46zM178 16q0 -11 -4 -13.5t-14 -2.5h-62q-9 0 -13.5 2.5t-4.5 13.5v493q0 11 4.5 13.5t13.5 2.5h62q10 0 14 -2.5t4 -13.5v-493zM439 662q0 -27 -19 -46t-46 -19t-46 19t-19 46t19 46t46 19t46 -19
t19 -46zM424 78q0 -72 -13.5 -123t-37 -85.5t-56 -55.5t-69.5 -34q-14 -4 -18 8l-20 60q-2 8 1 11.5t10 6.5q34 16 54.5 37t31.5 45.5t14.5 52t3.5 56.5v452q0 11 4.5 13.5t13.5 2.5h63q10 0 14 -2.5t4 -13.5v-431z" />
    <glyph glyph-name="Jcircumflex" unicode="&#x134;" horiz-adv-x="567" 
d="M384 679q0 14 6 17.5t17 3.5h58q13 0 18 -3.5t5 -17.5v-102v-73.5t-0.5 -56t-0.5 -49.5v-54v-69q0 -67 -15 -120t-47.5 -90t-82 -56.5t-118.5 -19.5q-22 0 -48 2.5t-54 8t-55 15t-51 23.5q-7 5 -9.5 9.5t3.5 16.5l26 52q7 14 24 5q33 -16 77 -27t90 -11q86 0 122 49.5
t36 147.5zM586 745q-4 -5 -9 -3.5t-13 5.5l-131 62l-130 -64q-6 -3 -10 -2.5t-9 5.5l-18 21q-3 4 -4 8t4 8l127 102q22 18 41 18q7 0 18 -2.5t26 -15.5l122 -102q12 -9 2 -21z" />
    <glyph glyph-name="jcircumflex" unicode="&#x135;" horiz-adv-x="307" 
d="M213 78q0 -72 -13.5 -123t-37 -85.5t-56 -55.5t-69.5 -34q-14 -4 -18 8l-20 60q-2 8 1 11.5t10 6.5q34 16 54.5 37t31.5 45.5t14.5 52t3.5 56.5v452q0 11 4.5 13.5t13.5 2.5h63q10 0 14 -2.5t4 -13.5v-431zM312 576q-9 -7 -22 2l-130 91l-130 -94q-12 -7 -21 2l-21 22
q-7 7 -1 15l132 133q11 11 20.5 15t20.5 4q13 0 22.5 -3.5t21.5 -15.5l126 -131q13 -13 1 -23z" />
    <glyph glyph-name="Kcommaaccent" unicode="&#x136;" horiz-adv-x="639" 
d="M75 679q0 14 6 17.5t17 3.5h56q13 0 18 -3.5t5 -17.5v-326l4 -2l104 131l169 205q5 5 13.5 9t20.5 4h85q9 0 11.5 -5t-2.5 -11l-193 -235l241 -427q5 -10 2.5 -16t-12.5 -6h-72q-17 0 -25 3t-16 17l-190 343l-140 -174v-168q0 -14 -5 -17.5t-18 -3.5h-56q-11 0 -17 3.5
t-6 17.5v658zM329 -245q-4 -11 -7 -14.5t-14 -3.5h-33q-22 0 -20 15l15 191q1 6 4.5 12t13.5 6h87q11 0 15.5 -6t2.5 -12z" />
    <glyph glyph-name="kcommaaccent" unicode="&#x137;" horiz-adv-x="504" 
d="M166 294l188 223q3 4 6.5 6t12.5 2h88q5 0 6.5 -4.5t-1.5 -8.5l-133 -160l154 -340q2 -4 1 -8t-9 -4h-74q-11 0 -15.5 2.5t-7.5 8.5l-117 262l-103 -118v-139q0 -11 -4 -13.5t-14 -2.5h-62q-9 0 -13.5 2.5t-4.5 13.5v699q0 11 4.5 13.5t13.5 2.5h62q10 0 14 -2.5t4 -13.5
v-419zM248 -275q-4 -11 -7 -14.5t-14 -3.5h-33q-22 0 -20 15l15 191q1 6 4.5 12t13.5 6h87q11 0 15.5 -6t2.5 -12z" />
    <glyph glyph-name="kgreenlandic" unicode="&#x138;" horiz-adv-x="498" 
d="M167 291l188 226q3 4 6.5 6t12.5 2h87q5 0 6.5 -4.5t-1.5 -8.5l-163 -192l184 -308q2 -4 1 -8t-9 -4h-79q-11 0 -15 2.5t-8 8.5l-136 237l-79 -93v-139q0 -11 -4 -13.5t-14 -2.5h-62q-9 0 -13.5 2.5t-4.5 13.5v493q0 11 4.5 13.5t13.5 2.5h62q10 0 14 -2.5t4 -13.5v-216z
" />
    <glyph glyph-name="Lacute" unicode="&#x139;" horiz-adv-x="558" 
d="M75 681q0 14 6 17.5t17 3.5h57q13 0 18 -3.5t5 -17.5v-511q0 -76 77 -76h277q11 0 13.5 -4.5t2.5 -13.5v-57q0 -10 -2.5 -14.5t-13.5 -4.5h-286q-50 0 -82.5 14.5t-52.5 39t-28 56t-8 66.5v505zM99 779q-5 6 -4.5 10t8.5 10l144 106q5 4 10 5t12 -7l46 -64
q6 -6 4.5 -10.5t-6.5 -6.5l-170 -76q-10 -4 -15 -2.5t-10 6.5z" />
    <glyph glyph-name="lacute" unicode="&#x13a;" horiz-adv-x="286" 
d="M265 22q1 -9 -0.5 -12.5t-10.5 -8.5q-19 -8 -42 -10t-40 -2q-53 0 -75 24.5t-22 78.5v623q0 11 4 13.5t14 2.5h64q10 0 14 -2.5t4 -13.5v-596q0 -27 7.5 -35.5t25.5 -8.5q9 0 18.5 0.5t17.5 1.5t11 -1t4 -10zM91 779q-5 6 -4.5 10t8.5 10l144 106q5 4 10 5t12 -7l46 -64
q6 -6 4.5 -10.5t-6.5 -6.5l-170 -76q-10 -4 -15 -2.5t-10 6.5z" />
    <glyph glyph-name="Lcommaaccent" unicode="&#x13b;" horiz-adv-x="558" 
d="M75 681q0 14 6 17.5t17 3.5h57q13 0 18 -3.5t5 -17.5v-511q0 -76 77 -76h277q11 0 13.5 -4.5t2.5 -13.5v-57q0 -10 -2.5 -14.5t-13.5 -4.5h-286q-50 0 -82.5 14.5t-52.5 39t-28 56t-8 66.5v505zM334 -275q-4 -11 -7 -14.5t-14 -3.5h-33q-22 0 -20 15l15 191q1 6 4.5 12
t13.5 6h87q11 0 15.5 -6t2.5 -12z" />
    <glyph glyph-name="lcommaaccent" unicode="&#x13c;" horiz-adv-x="286" 
d="M265 22q1 -9 -0.5 -12.5t-10.5 -8.5q-19 -8 -42 -10t-40 -2q-53 0 -75 24.5t-22 78.5v623q0 11 4 13.5t14 2.5h64q10 0 14 -2.5t4 -13.5v-596q0 -27 7.5 -35.5t25.5 -8.5q9 0 18.5 0.5t17.5 1.5t11 -1t4 -10zM143 -275q-4 -11 -7 -14.5t-14 -3.5h-33q-22 0 -20 15l15 191
q1 6 4.5 12t13.5 6h87q11 0 15.5 -6t2.5 -12z" />
    <glyph glyph-name="Lcaron" unicode="&#x13d;" horiz-adv-x="558" 
d="M75 681q0 14 6 17.5t17 3.5h57q13 0 18 -3.5t5 -17.5v-511q0 -76 77 -76h277q11 0 13.5 -4.5t2.5 -13.5v-57q0 -10 -2.5 -14.5t-13.5 -4.5h-286q-50 0 -82.5 14.5t-52.5 39t-28 56t-8 66.5v505zM431 493q-4 -11 -7 -14.5t-14 -3.5h-33q-22 0 -20 15l15 191q1 6 4.5 12
t13.5 6h87q11 0 15.5 -6t2.5 -12z" />
    <glyph glyph-name="lcaron" unicode="&#x13e;" horiz-adv-x="365" 
d="M265 22q1 -9 -0.5 -12.5t-10.5 -8.5q-19 -8 -42 -10t-40 -2q-53 0 -75 24.5t-22 78.5v623q0 11 4 13.5t14 2.5h64q10 0 14 -2.5t4 -13.5v-596q0 -27 7.5 -35.5t25.5 -8.5q9 0 18.5 0.5t17.5 1.5t11 -1t4 -10zM322 505q-4 -11 -7 -14.5t-14 -3.5h-33q-22 0 -20 15l15 191
q1 6 4.5 12t13.5 6h87q11 0 15.5 -6t2.5 -12z" />
    <glyph glyph-name="Ldot" unicode="&#x13f;" horiz-adv-x="558" 
d="M75 681q0 14 6 17.5t17 3.5h57q13 0 18 -3.5t5 -17.5v-511q0 -76 77 -76h277q11 0 13.5 -4.5t2.5 -13.5v-57q0 -10 -2.5 -14.5t-13.5 -4.5h-286q-50 0 -82.5 14.5t-52.5 39t-28 56t-8 66.5v505zM459 376q0 -25 -19 -43.5t-44 -18.5q-26 0 -44.5 18.5t-18.5 43.5
t18.5 43.5t44.5 18.5q25 0 44 -18.5t19 -43.5z" />
    <glyph glyph-name="ldot" unicode="&#x140;" horiz-adv-x="359" 
d="M265 22q1 -9 -0.5 -12.5t-10.5 -8.5q-19 -8 -42 -10t-40 -2q-53 0 -75 24.5t-22 78.5v623q0 11 4 13.5t14 2.5h64q10 0 14 -2.5t4 -13.5v-596q0 -27 7.5 -35.5t25.5 -8.5q9 0 18.5 0.5t17.5 1.5t11 -1t4 -10zM366 386q0 -25 -19 -43.5t-44 -18.5q-26 0 -44.5 18.5
t-18.5 43.5t18.5 43.5t44.5 18.5q25 0 44 -18.5t19 -43.5z" />
    <glyph glyph-name="Lslash" unicode="&#x141;" horiz-adv-x="558" 
d="M548 21q0 -10 -2.5 -14.5t-13.5 -4.5h-286q-50 0 -82.5 14.5t-52.5 39t-28 56t-8 66.5v97l-48 -27q-8 -5 -16.5 -4t-13.5 9l-19 29q-6 11 -3 17t11 11l89 51v326q0 11 4.5 14t13.5 3h67q10 0 14 -3t4 -14v-266l106 61q8 5 16 4t13 -10l20 -30q5 -9 1.5 -15.5t-12.5 -12.5
l-144 -83v-163q0 -76 77 -76h277q11 0 13.5 -4.5t2.5 -13.5v-57v0z" />
    <glyph glyph-name="lslash" unicode="&#x142;" horiz-adv-x="286" 
d="M265 22q1 -9 -0.5 -12.5t-10.5 -8.5q-19 -8 -42 -10t-40 -2q-53 0 -75 24.5t-22 78.5v171l-50 -28q-8 -5 -16.5 -4t-13.5 9l-16 27q-6 11 -3 17t11 11l88 50v370q0 11 4 13.5t14 2.5h64q10 0 14 -2.5t4 -13.5v-312l64 37q8 5 16 4t13 -10l17 -28q5 -9 1.5 -15.5
t-12.5 -12.5l-99 -57v-202q0 -27 7.5 -35.5t25.5 -8.5q9 0 18.5 0.5t17.5 1.5t11 -1t4 -10l6 -44v0z" />
    <glyph glyph-name="Nacute" unicode="&#x143;" horiz-adv-x="700" 
d="M524 680q0 14 6 17.5t17 3.5h55q13 0 18 -3.5t5 -17.5v-625q0 -28 -11.5 -41.5t-42.5 -13.5h-30q-24 0 -35 10t-25 33l-220 367l-82 142h-3v-531q0 -14 -5 -17.5t-18 -3.5h-55q-11 0 -17 3.5t-6 17.5v625q0 28 11.5 41.5t42.5 13.5h30q24 0 35 -10t25 -33l217 -363
l85 -146h3v531zM305 779q-5 6 -4.5 10t8.5 10l144 106q5 4 10 5t12 -7l46 -64q6 -6 4.5 -10.5t-6.5 -6.5l-170 -76q-10 -4 -15 -2.5t-10 6.5z" />
    <glyph glyph-name="nacute" unicode="&#x144;" horiz-adv-x="568" 
d="M503 16q0 -11 -4 -13.5t-14 -2.5h-62q-9 0 -13.5 2.5t-4.5 13.5v264q0 43 -7 74.5t-25 52.5t-48 31.5t-76 10.5q-11 0 -33 -1t-53 -6v-426q0 -11 -4 -13.5t-14 -2.5h-62q-9 0 -13.5 2.5t-4.5 13.5v428q0 37 14 57.5t56 26.5q10 1 26 2.5t33.5 3t34 2t28.5 0.5
q64 0 110.5 -14t76.5 -44.5t44.5 -78.5t14.5 -116v-267zM215 592q-8 2 -9.5 5.5t3.5 13.5l66 158q2 5 6.5 8.5t14.5 1.5l77 -21q8 -2 9.5 -6.5t-2.5 -9.5l-110 -153q-6 -8 -10.5 -9.5t-12.5 0.5z" />
    <glyph glyph-name="Ncommaaccent" unicode="&#x145;" horiz-adv-x="700" 
d="M524 680q0 14 6 17.5t17 3.5h55q13 0 18 -3.5t5 -17.5v-625q0 -28 -11.5 -41.5t-42.5 -13.5h-30q-24 0 -35 10t-25 33l-220 367l-82 142h-3v-531q0 -14 -5 -17.5t-18 -3.5h-55q-11 0 -17 3.5t-6 17.5v625q0 28 11.5 41.5t42.5 13.5h30q24 0 35 -10t25 -33l217 -363
l85 -146h3v531zM327 -245q-4 -11 -7 -14.5t-14 -3.5h-33q-22 0 -20 15l15 191q1 6 4.5 12t13.5 6h87q11 0 15.5 -6t2.5 -12z" />
    <glyph glyph-name="ncommaaccent" unicode="&#x146;" horiz-adv-x="568" 
d="M503 16q0 -11 -4 -13.5t-14 -2.5h-62q-9 0 -13.5 2.5t-4.5 13.5v264q0 43 -7 74.5t-25 52.5t-48 31.5t-76 10.5q-11 0 -33 -1t-53 -6v-426q0 -11 -4 -13.5t-14 -2.5h-62q-9 0 -13.5 2.5t-4.5 13.5v428q0 37 14 57.5t56 26.5q10 1 26 2.5t33.5 3t34 2t28.5 0.5
q64 0 110.5 -14t76.5 -44.5t44.5 -78.5t14.5 -116v-267zM283 -275q-4 -11 -7 -14.5t-14 -3.5h-33q-22 0 -20 15l15 191q1 6 4.5 12t13.5 6h87q11 0 15.5 -6t2.5 -12z" />
    <glyph glyph-name="Ncaron" unicode="&#x147;" horiz-adv-x="700" 
d="M524 680q0 14 6 17.5t17 3.5h55q13 0 18 -3.5t5 -17.5v-625q0 -28 -11.5 -41.5t-42.5 -13.5h-30q-24 0 -35 10t-25 33l-220 367l-82 142h-3v-531q0 -14 -5 -17.5t-18 -3.5h-55q-11 0 -17 3.5t-6 17.5v625q0 28 11.5 41.5t42.5 13.5h30q24 0 35 -10t25 -33l217 -363
l85 -146h3v531zM540 881q6 -5 6.5 -10.5t-7.5 -12.5l-126 -99q-14 -11 -25.5 -14t-18.5 -3q-8 0 -18.5 4t-22.5 13l-132 101q-6 7 1 15l16 23q9 9 21 3l135 -64l130 63q8 4 12.5 5t9.5 -3z" />
    <glyph glyph-name="ncaron" unicode="&#x148;" horiz-adv-x="568" 
d="M503 16q0 -11 -4 -13.5t-14 -2.5h-62q-9 0 -13.5 2.5t-4.5 13.5v264q0 43 -7 74.5t-25 52.5t-48 31.5t-76 10.5q-11 0 -33 -1t-53 -6v-426q0 -11 -4 -13.5t-14 -2.5h-62q-9 0 -13.5 2.5t-4.5 13.5v428q0 37 14 57.5t56 26.5q10 1 26 2.5t33.5 3t34 2t28.5 0.5
q64 0 110.5 -14t76.5 -44.5t44.5 -78.5t14.5 -116v-267zM444 745q6 -5 6.5 -10t-7.5 -13l-126 -131q-12 -12 -21.5 -15.5t-22.5 -3.5q-11 0 -20.5 4t-20.5 15l-132 133q-7 9 1 15l22 20q9 9 21 2l129 -92l130 91q13 9 22 2z" />
    <glyph glyph-name="napostrophe" unicode="&#x149;" horiz-adv-x="643" 
d="M578 16q0 -11 -4 -13.5t-14 -2.5h-62q-9 0 -13.5 2.5t-4.5 13.5v264q0 43 -7 74.5t-25 52.5t-48 31.5t-76 10.5q-11 0 -33 -1t-53 -6v-426q0 -11 -4 -13.5t-14 -2.5h-62q-9 0 -13.5 2.5t-4.5 13.5v428q0 37 14 57.5t56 26.5q10 1 26 2.5t33.5 3t34 2t28.5 0.5
q64 0 110.5 -14t76.5 -44.5t44.5 -78.5t14.5 -116v-267zM73 504q-4 -11 -7 -14.5t-14 -3.5h-33q-22 0 -20 15l15 191q1 6 4.5 12t13.5 6h87q11 0 15.5 -6t2.5 -12z" />
    <glyph glyph-name="Eng" unicode="&#x14a;" horiz-adv-x="700" 
d="M524 684q0 11 4.5 13.5t13.5 2.5h65q10 0 14 -2.5t4 -13.5v-756q0 -27 -5 -51t-18.5 -42t-37 -28.5t-61.5 -10.5q-13 0 -29.5 2.5t-33.5 7.5q-8 2 -8.5 6.5t1.5 11.5l7 50q2 11 6.5 12t11.5 0q10 -1 16 -1.5t13 -0.5q32 0 37.5 14.5t5.5 46.5v38l-265 444l-86 150h-3
v-561q0 -11 -4 -13.5t-14 -2.5h-65q-9 0 -13.5 2.5t-4.5 13.5v639q0 28 12 41.5t39 13.5h33q33 0 48 -14t33 -45l195 -330l83 -147h6v510v0z" />
    <glyph glyph-name="eng" unicode="&#x14b;" horiz-adv-x="568" 
d="M363 -116q32 0 37.5 14.5t5.5 46.5q0 16 -0.5 28.5t-0.5 27.5v35.5v52v78v113.5q0 43 -7 74.5t-25 52.5t-48 31.5t-76 10.5q-11 0 -33 -1t-53 -6v-426q0 -11 -4 -13.5t-14 -2.5h-62q-9 0 -13.5 2.5t-4.5 13.5v428q0 74 70 84q10 1 26 2.5t33.5 3t34 2t28.5 0.5
q64 0 110.5 -14t76.5 -44.5t44.5 -78.5t14.5 -116v-355q0 -27 -5 -51t-18.5 -42t-37 -28.5t-61.5 -10.5q-13 0 -29.5 2.5t-33.5 7.5q-8 2 -8.5 6.5t1.5 11.5l7 50q2 11 6.5 12t11.5 0l15 -1.5t12 -0.5z" />
    <glyph glyph-name="Omacron" unicode="&#x14c;" horiz-adv-x="712" 
d="M657 353q0 -176 -77 -270t-227 -94q-147 0 -222.5 90.5t-75.5 269.5q0 87 23 154.5t63.5 113.5t95.5 70t119 24q74 0 130 -24.5t94 -71t57.5 -112.5t19.5 -150zM552 349q0 52 -8 101t-29 86t-58.5 59.5t-97.5 22.5q-51 0 -88.5 -21t-62 -57t-37 -84.5t-12.5 -102.5
q0 -61 9.5 -111t32 -85.5t60 -55t93.5 -19.5q57 0 95 22.5t61 59.5t32.5 85t9.5 100zM236 776q-11 0 -13.5 4t-2.5 14v42q0 9 2.5 13.5t13.5 4.5h243q11 0 13.5 -4.5t2.5 -13.5v-42q0 -10 -2.5 -14t-13.5 -4h-243z" />
    <glyph glyph-name="omacron" unicode="&#x14d;" horiz-adv-x="563" 
d="M518 265q0 -134 -60.5 -205t-178.5 -71q-115 0 -174.5 68.5t-59.5 204.5q0 66 18 117t50 86t75.5 53t93.5 18q116 0 176 -71.5t60 -199.5zM419 262q0 37 -5.5 72t-20.5 61.5t-41 42.5t-68 16q-36 0 -62.5 -15t-44 -40.5t-26 -60t-8.5 -73.5q0 -44 6.5 -79.5t22.5 -61
t42.5 -39.5t65.5 -14q40 0 66.5 16t42.5 42.5t23 61t7 71.5zM159 590q-11 0 -13.5 4t-2.5 14v42q0 9 2.5 13.5t13.5 4.5h243q11 0 13.5 -4.5t2.5 -13.5v-42q0 -10 -2.5 -14t-13.5 -4h-243z" />
    <glyph glyph-name="Obreve" unicode="&#x14e;" horiz-adv-x="712" 
d="M657 353q0 -176 -77 -270t-227 -94q-147 0 -222.5 90.5t-75.5 269.5q0 87 23 154.5t63.5 113.5t95.5 70t119 24q74 0 130 -24.5t94 -71t57.5 -112.5t19.5 -150zM552 349q0 52 -8 101t-29 86t-58.5 59.5t-97.5 22.5q-51 0 -88.5 -21t-62 -57t-37 -84.5t-12.5 -102.5
q0 -61 9.5 -111t32 -85.5t60 -55t93.5 -19.5q57 0 95 22.5t61 59.5t32.5 85t9.5 100zM360 747q-26 0 -49.5 9t-44.5 24t-39 34.5t-33 40.5q-2 3 -3.5 8t6.5 12l22 19q9 6 12 4.5t11 -7.5q30 -31 62 -49.5t60 -18.5q11 0 23.5 2.5t27.5 10.5t32.5 21.5t39.5 36.5q9 8 12.5 7
t8.5 -5l22 -18q9 -8 7.5 -13t-3.5 -8q-45 -59 -90 -84.5t-84 -25.5z" />
    <glyph glyph-name="obreve" unicode="&#x14f;" horiz-adv-x="563" 
d="M518 265q0 -134 -60.5 -205t-178.5 -71q-115 0 -174.5 68.5t-59.5 204.5q0 66 18 117t50 86t75.5 53t93.5 18q116 0 176 -71.5t60 -199.5zM419 262q0 37 -5.5 72t-20.5 61.5t-41 42.5t-68 16q-36 0 -62.5 -15t-44 -40.5t-26 -60t-8.5 -73.5q0 -44 6.5 -79.5t22.5 -61
t42.5 -39.5t65.5 -14q40 0 66.5 16t42.5 42.5t23 61t7 71.5zM277 581q-26 0 -49.5 9t-44.5 24t-39 34.5t-33 40.5q-2 3 -3.5 8t6.5 12l22 19q9 6 12 4.5t11 -7.5q30 -31 62 -49.5t60 -18.5q11 0 23.5 2.5t27.5 10.5t32.5 21.5t39.5 36.5q9 8 12.5 7t8.5 -5l22 -18
q9 -8 7.5 -13t-3.5 -8q-45 -59 -90 -84.5t-84 -25.5z" />
    <glyph glyph-name="Ohungarumlaut" unicode="&#x150;" horiz-adv-x="712" 
d="M657 353q0 -176 -77 -270t-227 -94q-147 0 -222.5 90.5t-75.5 269.5q0 87 23 154.5t63.5 113.5t95.5 70t119 24q74 0 130 -24.5t94 -71t57.5 -112.5t19.5 -150zM552 349q0 52 -8 101t-29 86t-58.5 59.5t-97.5 22.5q-51 0 -88.5 -21t-62 -57t-37 -84.5t-12.5 -102.5
q0 -61 9.5 -111t32 -85.5t60 -55t93.5 -19.5q57 0 95 22.5t61 59.5t32.5 85t9.5 100zM216 788q-5 6 -4.5 10t8.5 10l141 105q5 4 10 5t12 -7l48 -58q6 -6 4.5 -10.5t-6.5 -6.5l-165 -76q-10 -4 -15 -2.5t-10 6.5zM411 788q-5 6 -4.5 10t8.5 10l141 105q5 4 10 5t12 -7
l48 -58q6 -6 4.5 -10.5t-6.5 -6.5l-165 -76q-10 -4 -15 -2.5t-10 6.5z" />
    <glyph glyph-name="ohungarumlaut" unicode="&#x151;" horiz-adv-x="563" 
d="M518 265q0 -134 -60.5 -205t-178.5 -71q-115 0 -174.5 68.5t-59.5 204.5q0 66 18 117t50 86t75.5 53t93.5 18q116 0 176 -71.5t60 -199.5zM419 262q0 37 -5.5 72t-20.5 61.5t-41 42.5t-68 16q-36 0 -62.5 -15t-44 -40.5t-26 -60t-8.5 -73.5q0 -44 6.5 -79.5t22.5 -61
t42.5 -39.5t65.5 -14q40 0 66.5 16t42.5 42.5t23 61t7 71.5zM176 592q-8 2 -9.5 5.5t3.5 13.5l66 158q2 5 6.5 8.5t14.5 1.5l77 -21q8 -2 9.5 -6.5t-2.5 -9.5l-110 -153q-6 -8 -10.5 -9.5t-12.5 0.5zM319 592q-8 2 -9.5 5.5t3.5 13.5l66 158q2 5 6.5 8.5t14.5 1.5l77 -21
q8 -2 9.5 -6.5t-2.5 -9.5l-110 -153q-6 -8 -10.5 -9.5t-12.5 0.5z" />
    <glyph glyph-name="OE" unicode="&#x152;" horiz-adv-x="913" 
d="M882 18q0 -9 -2.5 -13.5t-13.5 -4.5h-270q-27 0 -49 5t-40 14q-29 -14 -62 -22t-70 -8q-85 0 -142 30.5t-91 80.5t-48.5 115.5t-14.5 134.5q0 82 21 148.5t59.5 113.5t93 73t122.5 26q74 0 131 -30q37 20 90 20h270q11 0 13.5 -4.5t2.5 -13.5v-58q0 -10 -2.5 -13.5
t-13.5 -3.5h-262q-41 0 -59 -18.5t-18 -56.5v-117h303q11 0 13.5 -4t2.5 -14v-53q0 -9 -2.5 -13.5t-13.5 -4.5h-303v-159q0 -32 17.5 -53t59.5 -21h262q11 0 13.5 -4t2.5 -14v-58zM425 526q0 44 13 79q-14 5 -30 7.5t-33 2.5q-48 0 -84 -19.5t-60 -55t-36 -84t-12 -106.5
t9.5 -107.5t32 -85.5t59.5 -56.5t91 -20.5q37 0 64 10q-8 18 -11 39.5t-3 42.5v354z" />
    <glyph glyph-name="oe" unicode="&#x153;" horiz-adv-x="918" 
d="M655 536q57 0 98.5 -15.5t68.5 -44t40 -69t13 -89.5q0 -26 -7 -42.5t-18 -26t-26.5 -13.5t-31.5 -4h-272q1 -44 13 -74t33 -48.5t48 -27t58 -8.5q33 0 65.5 9t52.5 20q15 7 21 -6l24 -47q7 -16 -6 -23q-38 -23 -81 -30.5t-83 -7.5q-66 0 -116 20.5t-81 65.5
q-61 -86 -189 -86q-115 0 -174.5 68.5t-59.5 204.5q0 66 18 117t50 86t75.5 53t93.5 18q66 0 114 -23.5t77 -68.5q32 45 78.5 68.5t103.5 23.5zM419 262q0 37 -5.5 72t-20.5 61.5t-41 42.5t-68 16q-36 0 -62.5 -15t-44 -40.5t-26 -60t-8.5 -73.5q0 -44 6.5 -79.5t22.5 -61
t42.5 -39.5t65.5 -14q40 0 66.5 16t42.5 42.5t23 61t7 71.5zM782 310q0 30 -5.5 56t-19.5 45.5t-38.5 31t-62.5 11.5q-31 0 -55 -12.5t-40.5 -33t-26 -46t-10.5 -52.5h258z" />
    <glyph glyph-name="Racute" unicode="&#x154;" horiz-adv-x="633" 
d="M75 648q0 29 12.5 41.5t41.5 12.5h230q48 0 87.5 -14.5t68 -41t44.5 -63.5t16 -81q0 -60 -30 -104t-80 -64v-5q21 -6 34.5 -15.5t23 -22t15.5 -27.5t11 -33l58 -211q2 -5 0.5 -12.5t-14.5 -7.5h-75q-5 0 -11 2t-9 12l-51 189q-16 56 -50.5 75t-83.5 19h-132v-276
q0 -14 -5 -17.5t-18 -3.5h-60q-11 0 -17 3.5t-6 17.5v627zM471 498q0 16 -4.5 35t-18 35.5t-37.5 27.5t-63 11h-166v-221h158q36 0 60.5 9t40.5 24.5t23 36t7 42.5zM249 779q-5 6 -4.5 10t8.5 10l144 106q5 4 10 5t12 -7l46 -64q6 -6 4.5 -10.5t-6.5 -6.5l-170 -76
q-10 -4 -15 -2.5t-10 6.5z" />
    <glyph glyph-name="racute" unicode="&#x155;" horiz-adv-x="423" 
d="M382 395q-5 -8 -9.5 -6.5t-9.5 5.5q-57 54 -139 54q-13 0 -26 -1.5t-25 -3.5v-427q0 -11 -4 -13.5t-14 -2.5h-62q-9 0 -13.5 2.5t-4.5 13.5v431q0 41 14 59.5t56 24.5q18 2 36.5 3.5t36.5 1.5q58 0 109 -15.5t95 -53.5q9 -8 2 -17zM169 592q-8 2 -9.5 5.5t3.5 13.5
l66 158q2 5 6.5 8.5t14.5 1.5l77 -21q8 -2 9.5 -6.5t-2.5 -9.5l-110 -153q-6 -8 -10.5 -9.5t-12.5 0.5z" />
    <glyph glyph-name="Rcommaaccent" unicode="&#x156;" horiz-adv-x="633" 
d="M75 648q0 29 12.5 41.5t41.5 12.5h230q48 0 87.5 -14.5t68 -41t44.5 -63.5t16 -81q0 -60 -30 -104t-80 -64v-5q21 -6 34.5 -15.5t23 -22t15.5 -27.5t11 -33l58 -211q2 -5 0.5 -12.5t-14.5 -7.5h-75q-5 0 -11 2t-9 12l-51 189q-16 56 -50.5 75t-83.5 19h-132v-276
q0 -14 -5 -17.5t-18 -3.5h-60q-11 0 -17 3.5t-6 17.5v627zM471 498q0 16 -4.5 35t-18 35.5t-37.5 27.5t-63 11h-166v-221h158q36 0 60.5 9t40.5 24.5t23 36t7 42.5zM333 -243q-4 -11 -7 -14.5t-14 -3.5h-33q-22 0 -20 15l15 191q1 6 4.5 12t13.5 6h87q11 0 15.5 -6t2.5 -12z
" />
    <glyph glyph-name="rcommaaccent" unicode="&#x157;" horiz-adv-x="423" 
d="M382 395q-5 -8 -9.5 -6.5t-9.5 5.5q-57 54 -139 54q-13 0 -26 -1.5t-25 -3.5v-427q0 -11 -4 -13.5t-14 -2.5h-62q-9 0 -13.5 2.5t-4.5 13.5v431q0 41 14 59.5t56 24.5q18 2 36.5 3.5t36.5 1.5q58 0 109 -15.5t95 -53.5q9 -8 2 -17zM122 -275q-4 -11 -7 -14.5t-14 -3.5
h-33q-22 0 -20 15l15 191q1 6 4.5 12t13.5 6h87q11 0 15.5 -6t2.5 -12z" />
    <glyph glyph-name="Rcaron" unicode="&#x158;" horiz-adv-x="633" 
d="M75 648q0 29 12.5 41.5t41.5 12.5h230q48 0 87.5 -14.5t68 -41t44.5 -63.5t16 -81q0 -60 -30 -104t-80 -64v-5q21 -6 34.5 -15.5t23 -22t15.5 -27.5t11 -33l58 -211q2 -5 0.5 -12.5t-14.5 -7.5h-75q-5 0 -11 2t-9 12l-51 189q-16 56 -50.5 75t-83.5 19h-132v-276
q0 -14 -5 -17.5t-18 -3.5h-60q-11 0 -17 3.5t-6 17.5v627zM471 498q0 16 -4.5 35t-18 35.5t-37.5 27.5t-63 11h-166v-221h158q36 0 60.5 9t40.5 24.5t23 36t7 42.5zM468 881q6 -5 6.5 -10.5t-7.5 -12.5l-126 -99q-14 -11 -25.5 -14t-18.5 -3q-8 0 -18.5 4t-22.5 13l-132 101
q-6 7 1 15l16 23q9 9 21 3l135 -64l130 63q8 4 12.5 5t9.5 -3z" />
    <glyph glyph-name="rcaron" unicode="&#x159;" horiz-adv-x="423" 
d="M382 395q-5 -8 -9.5 -6.5t-9.5 5.5q-57 54 -139 54q-13 0 -26 -1.5t-25 -3.5v-427q0 -11 -4 -13.5t-14 -2.5h-62q-9 0 -13.5 2.5t-4.5 13.5v431q0 41 14 59.5t56 24.5q18 2 36.5 3.5t36.5 1.5q58 0 109 -15.5t95 -53.5q9 -8 2 -17zM383 745q6 -5 6.5 -10t-7.5 -13
l-126 -131q-12 -12 -21.5 -15.5t-22.5 -3.5q-11 0 -20.5 4t-20.5 15l-132 133q-7 9 1 15l22 20q9 9 21 2l129 -92l130 91q13 9 22 2z" />
    <glyph glyph-name="Sacute" unicode="&#x15a;" horiz-adv-x="577" 
d="M548 190q0 -52 -19.5 -90t-53 -62.5t-78 -36.5t-94.5 -12q-62 0 -130 10.5t-128 40.5q-12 5 -5 21l27 61q6 12 18 7q108 -47 200 -47q84 0 120.5 28.5t36.5 75.5q0 24 -10 42.5t-29.5 34t-48 29t-66.5 28.5q-56 22 -98 43t-70.5 45t-43 53t-14.5 67q0 83 55 133.5
t164 50.5q25 0 54 -2.5t57.5 -7.5t55.5 -12.5t50 -17.5q12 -6 7 -17l-23 -64q-3 -8 -6 -9t-8 1q-51 18 -100.5 26.5t-90.5 8.5q-57 0 -84 -24t-27 -58q0 -22 10.5 -38.5t32.5 -31.5t55 -30t78 -34q38 -16 75 -33.5t66 -41.5t47 -57t18 -80zM207 779q-5 6 -4.5 10t8.5 10
l144 106q5 4 10 5t12 -7l46 -64q6 -6 4.5 -10.5t-6.5 -6.5l-170 -76q-10 -4 -15 -2.5t-10 6.5z" />
    <glyph glyph-name="sacute" unicode="&#x15b;" horiz-adv-x="473" 
d="M433 145q0 -40 -15 -69t-41 -48.5t-60.5 -29t-73.5 -9.5q-48 0 -102 9t-96 32q-6 3 -9 8.5t2 14.5l21 47q4 8 8.5 10.5t15.5 -2.5q40 -18 82.5 -27t77.5 -9q47 0 71.5 18.5t24.5 50.5q0 34 -31 53.5t-87 39.5q-41 15 -71.5 29.5t-50.5 32.5t-30 40.5t-10 52.5
q0 66 47 106.5t135 40.5q41 0 79.5 -6.5t78.5 -22.5q7 -3 9 -9t0 -12l-21 -53q-3 -7 -7.5 -7t-9.5 2q-41 15 -69.5 20t-62.5 5q-43 0 -63 -17.5t-20 -40.5q0 -15 6 -26.5t19.5 -21.5t35 -19.5t52.5 -21.5q30 -11 59.5 -24t53 -31.5t38 -44t14.5 -61.5zM173 592
q-8 2 -9.5 5.5t3.5 13.5l66 158q2 5 6.5 8.5t14.5 1.5l77 -21q8 -2 9.5 -6.5t-2.5 -9.5l-110 -153q-6 -8 -10.5 -9.5t-12.5 0.5z" />
    <glyph glyph-name="Scircumflex" unicode="&#x15c;" horiz-adv-x="577" 
d="M548 190q0 -52 -19.5 -90t-53 -62.5t-78 -36.5t-94.5 -12q-62 0 -130 10.5t-128 40.5q-12 5 -5 21l27 61q6 12 18 7q108 -47 200 -47q84 0 120.5 28.5t36.5 75.5q0 24 -10 42.5t-29.5 34t-48 29t-66.5 28.5q-56 22 -98 43t-70.5 45t-43 53t-14.5 67q0 83 55 133.5
t164 50.5q25 0 54 -2.5t57.5 -7.5t55.5 -12.5t50 -17.5q12 -6 7 -17l-23 -64q-3 -8 -6 -9t-8 1q-51 18 -100.5 26.5t-90.5 8.5q-57 0 -84 -24t-27 -58q0 -22 10.5 -38.5t32.5 -31.5t55 -30t78 -34q38 -16 75 -33.5t66 -41.5t47 -57t18 -80zM457 755q-4 -5 -9 -3.5t-13 5.5
l-131 62l-130 -64q-6 -3 -10 -2.5t-9 5.5l-18 21q-3 4 -4 8t4 8l127 102q22 18 41 18q7 0 18 -2.5t26 -15.5l122 -102q12 -9 2 -21z" />
    <glyph glyph-name="scircumflex" unicode="&#x15d;" horiz-adv-x="473" 
d="M433 145q0 -40 -15 -69t-41 -48.5t-60.5 -29t-73.5 -9.5q-48 0 -102 9t-96 32q-6 3 -9 8.5t2 14.5l21 47q4 8 8.5 10.5t15.5 -2.5q40 -18 82.5 -27t77.5 -9q47 0 71.5 18.5t24.5 50.5q0 34 -31 53.5t-87 39.5q-41 15 -71.5 29.5t-50.5 32.5t-30 40.5t-10 52.5
q0 66 47 106.5t135 40.5q41 0 79.5 -6.5t78.5 -22.5q7 -3 9 -9t0 -12l-21 -53q-3 -7 -7.5 -7t-9.5 2q-41 15 -69.5 20t-62.5 5q-43 0 -63 -17.5t-20 -40.5q0 -15 6 -26.5t19.5 -21.5t35 -19.5t52.5 -21.5q30 -11 59.5 -24t53 -31.5t38 -44t14.5 -61.5zM386 586q-9 -7 -22 2
l-130 91l-130 -94q-12 -7 -21 2l-21 22q-7 7 -1 15l132 133q11 11 20.5 15t20.5 4q13 0 22.5 -3.5t21.5 -15.5l126 -131q13 -13 1 -23z" />
    <glyph glyph-name="Scedilla" unicode="&#x15e;" horiz-adv-x="577" 
d="M275 -56q28 -2 47 -9t30 -17.5t16 -24t5 -26.5q0 -14 -6.5 -28.5t-19.5 -26.5t-33 -19.5t-47 -7.5q-25 0 -49 4.5t-39 12.5q-12 4 -7 17l8 21q4 8 7 8.5t10 -1.5q29 -10 58 -10q49 0 49 32q0 17 -17 24t-37 7h-20t-10 4q-5 5 -4 11t3 14l22 63q-50 4 -100.5 14.5
t-95.5 33.5q-12 5 -5 21l27 61q6 12 18 7q108 -47 200 -47q84 0 120.5 28.5t36.5 75.5q0 24 -10 42.5t-29.5 34t-48 29t-66.5 28.5q-56 22 -98 43t-70.5 45t-43 53t-14.5 67q0 83 55 133.5t164 50.5q25 0 54 -2.5t57.5 -7.5t55.5 -12.5t50 -17.5q12 -6 7 -17l-23 -64
q-3 -8 -6 -9t-8 1q-51 18 -100.5 26.5t-90.5 8.5q-57 0 -84 -24t-27 -58q0 -22 10.5 -38.5t32.5 -31.5t55 -30t78 -34q38 -16 75 -33.5t66 -41.5t47 -57t18 -80q0 -52 -19.5 -90t-53 -62.5t-78 -36.5t-94.5 -12h-13l-15 -45v0z" />
    <glyph glyph-name="scedilla" unicode="&#x15f;" horiz-adv-x="473" 
d="M227 -56q28 -2 47 -9t30 -17.5t16 -24t5 -26.5q0 -14 -6.5 -28.5t-19.5 -26.5t-33 -19.5t-47 -7.5q-25 0 -49 4.5t-39 12.5q-12 4 -7 17l8 21q4 8 7 8.5t10 -1.5q29 -10 58 -10q49 0 49 32q0 17 -17 24t-37 7h-20t-10 4q-5 5 -4 11t3 14l21 62q-38 4 -77 13t-70 26
q-6 3 -9 8.5t2 14.5l21 47q4 8 8.5 10.5t15.5 -2.5q40 -18 82.5 -27t77.5 -9q47 0 71.5 18.5t24.5 50.5q0 34 -31 53.5t-87 39.5q-41 15 -71.5 29.5t-50.5 32.5t-30 40.5t-10 52.5q0 66 47 106.5t135 40.5q41 0 79.5 -6.5t78.5 -22.5q7 -3 9 -9t0 -12l-21 -53q-3 -7 -7.5 -7
t-9.5 2q-41 15 -69.5 20t-62.5 5q-43 0 -63 -17.5t-20 -40.5q0 -15 6 -26.5t19.5 -21.5t35 -19.5t52.5 -21.5q30 -11 59.5 -24t53 -31.5t38 -44t14.5 -61.5q0 -40 -15 -69t-41 -48.5t-60.5 -29t-73.5 -9.5h-1l-15 -45v0z" />
    <glyph glyph-name="Scaron" unicode="&#x160;" horiz-adv-x="577" 
d="M548 190q0 -52 -19.5 -90t-53 -62.5t-78 -36.5t-94.5 -12q-62 0 -130 10.5t-128 40.5q-12 5 -5 21l27 61q6 12 18 7q108 -47 200 -47q84 0 120.5 28.5t36.5 75.5q0 24 -10 42.5t-29.5 34t-48 29t-66.5 28.5q-56 22 -98 43t-70.5 45t-43 53t-14.5 67q0 83 55 133.5
t164 50.5q25 0 54 -2.5t57.5 -7.5t55.5 -12.5t50 -17.5q12 -6 7 -17l-23 -64q-3 -8 -6 -9t-8 1q-51 18 -100.5 26.5t-90.5 8.5q-57 0 -84 -24t-27 -58q0 -22 10.5 -38.5t32.5 -31.5t55 -30t78 -34q38 -16 75 -33.5t66 -41.5t47 -57t18 -80zM477 881q6 -5 6.5 -10.5
t-7.5 -12.5l-126 -99q-14 -11 -25.5 -14t-18.5 -3q-8 0 -18.5 4t-22.5 13l-132 101q-6 7 1 15l16 23q9 9 21 3l135 -64l130 63q8 4 12.5 5t9.5 -3z" />
    <glyph glyph-name="scaron" unicode="&#x161;" horiz-adv-x="473" 
d="M433 145q0 -40 -15 -69t-41 -48.5t-60.5 -29t-73.5 -9.5q-48 0 -102 9t-96 32q-6 3 -9 8.5t2 14.5l21 47q4 8 8.5 10.5t15.5 -2.5q40 -18 82.5 -27t77.5 -9q47 0 71.5 18.5t24.5 50.5q0 34 -31 53.5t-87 39.5q-41 15 -71.5 29.5t-50.5 32.5t-30 40.5t-10 52.5
q0 66 47 106.5t135 40.5q41 0 79.5 -6.5t78.5 -22.5q7 -3 9 -9t0 -12l-21 -53q-3 -7 -7.5 -7t-9.5 2q-41 15 -69.5 20t-62.5 5q-43 0 -63 -17.5t-20 -40.5q0 -15 6 -26.5t19.5 -21.5t35 -19.5t52.5 -21.5q30 -11 59.5 -24t53 -31.5t38 -44t14.5 -61.5zM405 751q6 -5 6.5 -10
t-7.5 -13l-126 -131q-12 -12 -21.5 -15.5t-22.5 -3.5q-11 0 -20.5 4t-20.5 15l-132 133q-7 9 1 15l22 20q9 9 21 2l129 -92l130 91q13 9 22 2z" />
    <glyph glyph-name="Tcommaaccent" unicode="&#x162;" horiz-adv-x="555" 
d="M222 609h-191q-11 0 -13.5 4t-2.5 13v56q0 9 2.5 13.5t13.5 4.5h493q11 0 13.5 -4.5t2.5 -13.5v-56q0 -9 -2.5 -13t-13.5 -4h-196v-588q0 -14 -5 -17.5t-18 -3.5h-60q-11 0 -17 3.5t-6 17.5v588zM272 -275q-4 -11 -7 -14.5t-14 -3.5h-33q-22 0 -20 15l15 191q1 6 4.5 12
t13.5 6h87q11 0 15.5 -6t2.5 -12z" />
    <glyph glyph-name="tcommaaccent" unicode="&#x163;" horiz-adv-x="376" 
d="M31 447q-11 0 -13.5 4.5t-2.5 11.5v33q0 8 3 12.5t13 6.5l77 16l17 96q2 11 6.5 14t14.5 7l37 14q8 2 12.5 -0.5t4.5 -13.5v-123h105q11 0 13.5 -4.5t2.5 -11.5v-46q0 -8 -2.5 -12t-13.5 -4h-105v-312q0 -33 15 -46.5t47 -13.5q13 0 37 2.5t39 4.5q10 2 13 -0.5t4 -8.5
l10 -52q1 -6 0.5 -10.5t-9.5 -7.5q-31 -10 -63.5 -12t-47.5 -2q-79 0 -111 34t-32 106v318h-71zM174 -275q-4 -11 -7 -14.5t-14 -3.5h-33q-22 0 -20 15l15 191q1 6 4.5 12t13.5 6h87q11 0 15.5 -6t2.5 -12z" />
    <glyph glyph-name="Tcaron" unicode="&#x164;" horiz-adv-x="555" 
d="M222 609h-191q-11 0 -13.5 4t-2.5 13v56q0 9 2.5 13.5t13.5 4.5h493q11 0 13.5 -4.5t2.5 -13.5v-56q0 -9 -2.5 -13t-13.5 -4h-196v-588q0 -14 -5 -17.5t-18 -3.5h-60q-11 0 -17 3.5t-6 17.5v588zM447 881q6 -5 6.5 -10.5t-7.5 -12.5l-126 -99q-14 -11 -25.5 -14t-18.5 -3
q-8 0 -18.5 4t-22.5 13l-132 101q-6 7 1 15l16 23q9 9 21 3l135 -64l130 63q8 4 12.5 5t9.5 -3z" />
    <glyph glyph-name="tcaron" unicode="&#x165;" horiz-adv-x="424" 
d="M31 447q-11 0 -13.5 4.5t-2.5 11.5v33q0 8 3 12.5t13 6.5l77 16l17 96q2 11 6.5 14t14.5 7l37 14q8 2 12.5 -0.5t4.5 -13.5v-123h105q11 0 13.5 -4.5t2.5 -11.5v-46q0 -8 -2.5 -12t-13.5 -4h-105v-312q0 -33 15 -46.5t47 -13.5q13 0 37 2.5t39 4.5q10 2 13 -0.5t4 -8.5
l10 -52q1 -6 0.5 -10.5t-9.5 -7.5q-31 -10 -63.5 -12t-47.5 -2q-79 0 -111 34t-32 106v318h-71zM386 585q-4 -11 -7 -14.5t-14 -3.5h-33q-22 0 -20 15l15 191q1 6 4.5 12t13.5 6h87q11 0 15.5 -6t2.5 -12z" />
    <glyph glyph-name="Tbar" unicode="&#x166;" horiz-adv-x="555" 
d="M57 362q-9 0 -11 3.5t-2 11.5v38q0 8 2 11.5t11 3.5h165v179h-191q-11 0 -13.5 4t-2.5 13v56q0 9 2.5 13.5t13.5 4.5h493q11 0 13.5 -4.5t2.5 -13.5v-56q0 -9 -2.5 -13t-13.5 -4h-197v-179h168q9 0 11 -3.5t2 -11.5v-38q0 -8 -2 -11.5t-11 -3.5h-168v-346
q0 -11 -3.5 -13.5t-12.5 -2.5h-71q-9 0 -13.5 2.5t-4.5 13.5v346h-165v0z" />
    <glyph glyph-name="tbar" unicode="&#x167;" horiz-adv-x="376" 
d="M35 265q-9 0 -11 3.5t-2 11.5v37q0 8 2 11.5t11 3.5h67v115h-71q-11 0 -13.5 4.5t-2.5 11.5v33q0 8 3 12.5t13 6.5l77 16l17 96q2 11 6.5 14t14.5 7l37 14q8 2 12.5 -0.5t4.5 -13.5v-123h105q11 0 13.5 -4.5t2.5 -11.5v-46q0 -8 -2.5 -12t-13.5 -4h-105v-115h116
q9 0 11 -3.5t2 -11.5v-37q0 -8 -2 -11.5t-11 -3.5h-116v-130q0 -33 15 -46.5t47 -13.5q13 0 37 2.5t39 4.5q10 2 13 -0.5t4 -8.5l10 -52q1 -6 0.5 -10.5t-9.5 -7.5q-31 -10 -63.5 -12t-47.5 -2q-79 0 -111 34t-32 106v136h-67v0z" />
    <glyph glyph-name="Utilde" unicode="&#x168;" horiz-adv-x="684" 
d="M74 679q0 14 6 17.5t17 3.5h60q13 0 18 -3.5t5 -17.5v-371q0 -58 7.5 -100.5t29 -71t62 -42.5t106.5 -14q17 0 49 1.5t73 9.5v588q0 14 6 17.5t17 3.5h60q13 0 16 -3.5t3 -17.5v-582q0 -40 -17.5 -65t-64.5 -33q-38 -6 -77 -8.5t-71 -2.5q-83 0 -141 16t-94 53t-52.5 98
t-16.5 151zM415 756q-18 0 -34.5 5.5t-33 12t-32.5 12.5t-33 6q-13 0 -23.5 -8t-16.5 -19q-3 -5 -7.5 -7.5t-13.5 1.5l-34 15q-9 3 -12 6t1 11q17 30 43 52t65 22q18 0 34 -6t31.5 -13.5t30 -13.5t28.5 -6q15 0 26.5 8t16.5 20q4 8 7.5 9t11.5 -1l39 -11q17 -3 12 -15
q-17 -37 -41 -58.5t-65 -21.5z" />
    <glyph glyph-name="utilde" unicode="&#x169;" horiz-adv-x="558" 
d="M65 510q0 11 4 13.5t14 2.5h62q9 0 13.5 -2.5t4.5 -13.5v-264q0 -43 5.5 -74.5t21.5 -52.5t44.5 -31.5t74.5 -10.5q11 0 33 1t53 6v426q0 11 4 13.5t14 2.5h62q9 0 13.5 -2.5t4.5 -13.5v-428q0 -72 -70 -84q-28 -5 -63 -6.5t-59 -1.5q-65 0 -109.5 14t-73 44.5t-41 78.5
t-12.5 116v267zM348 619q-18 0 -34.5 5.5t-33 12t-32.5 12.5t-33 6q-13 0 -23.5 -8t-16.5 -19q-3 -5 -7.5 -7.5t-13.5 1.5l-34 15q-9 3 -12 6t1 11q17 30 43 52t65 22q18 0 34 -6t31.5 -13.5t30 -13.5t28.5 -6q15 0 26.5 8t16.5 20q4 8 7.5 9t11.5 -1l39 -11q17 -3 12 -15
q-17 -37 -41 -58.5t-65 -21.5z" />
    <glyph glyph-name="Umacron" unicode="&#x16a;" horiz-adv-x="684" 
d="M74 679q0 14 6 17.5t17 3.5h60q13 0 18 -3.5t5 -17.5v-371q0 -58 7.5 -100.5t29 -71t62 -42.5t106.5 -14q17 0 49 1.5t73 9.5v588q0 14 6 17.5t17 3.5h60q13 0 16 -3.5t3 -17.5v-582q0 -40 -17.5 -65t-64.5 -33q-38 -6 -77 -8.5t-71 -2.5q-83 0 -141 16t-94 53t-52.5 98
t-16.5 151zM222 771q-11 0 -13.5 4t-2.5 14v42q0 9 2.5 13.5t13.5 4.5h243q11 0 13.5 -4.5t2.5 -13.5v-42q0 -10 -2.5 -14t-13.5 -4h-243z" />
    <glyph glyph-name="umacron" unicode="&#x16b;" horiz-adv-x="558" 
d="M65 510q0 11 4 13.5t14 2.5h62q9 0 13.5 -2.5t4.5 -13.5v-264q0 -43 5.5 -74.5t21.5 -52.5t44.5 -31.5t74.5 -10.5q11 0 33 1t53 6v426q0 11 4 13.5t14 2.5h62q9 0 13.5 -2.5t4.5 -13.5v-428q0 -72 -70 -84q-28 -5 -63 -6.5t-59 -1.5q-65 0 -109.5 14t-73 44.5t-41 78.5
t-12.5 116v267zM162 616q-11 0 -13.5 4t-2.5 14v42q0 9 2.5 13.5t13.5 4.5h243q11 0 13.5 -4.5t2.5 -13.5v-42q0 -10 -2.5 -14t-13.5 -4h-243z" />
    <glyph glyph-name="Ubreve" unicode="&#x16c;" horiz-adv-x="684" 
d="M74 679q0 14 6 17.5t17 3.5h60q13 0 18 -3.5t5 -17.5v-371q0 -58 7.5 -100.5t29 -71t62 -42.5t106.5 -14q17 0 49 1.5t73 9.5v588q0 14 6 17.5t17 3.5h60q13 0 16 -3.5t3 -17.5v-582q0 -40 -17.5 -65t-64.5 -33q-38 -6 -77 -8.5t-71 -2.5q-83 0 -141 16t-94 53t-52.5 98
t-16.5 151zM347 737q-26 0 -49.5 9t-44.5 24t-39 34.5t-33 40.5q-2 3 -3.5 8t6.5 12l22 19q9 6 12 4.5t11 -7.5q30 -31 62 -49.5t60 -18.5q11 0 23.5 2.5t27.5 10.5t32.5 21.5t39.5 36.5q9 8 12.5 7t8.5 -5l22 -18q9 -8 7.5 -13t-3.5 -8q-45 -59 -90 -84.5t-84 -25.5z" />
    <glyph glyph-name="ubreve" unicode="&#x16d;" horiz-adv-x="558" 
d="M65 510q0 11 4 13.5t14 2.5h62q9 0 13.5 -2.5t4.5 -13.5v-264q0 -43 5.5 -74.5t21.5 -52.5t44.5 -31.5t74.5 -10.5q11 0 33 1t53 6v426q0 11 4 13.5t14 2.5h62q9 0 13.5 -2.5t4.5 -13.5v-428q0 -72 -70 -84q-28 -5 -63 -6.5t-59 -1.5q-65 0 -109.5 14t-73 44.5t-41 78.5
t-12.5 116v267zM277 581q-26 0 -49.5 9t-44.5 24t-39 34.5t-33 40.5q-2 3 -3.5 8t6.5 12l22 19q9 6 12 4.5t11 -7.5q30 -31 62 -49.5t60 -18.5q11 0 23.5 2.5t27.5 10.5t32.5 21.5t39.5 36.5q9 8 12.5 7t8.5 -5l22 -18q9 -8 7.5 -13t-3.5 -8q-45 -59 -90 -84.5t-84 -25.5z
" />
    <glyph glyph-name="Uring" unicode="&#x16e;" horiz-adv-x="684" 
d="M74 679q0 14 6 17.5t17 3.5h60q13 0 18 -3.5t5 -17.5v-371q0 -58 7.5 -100.5t29 -71t62 -42.5t106.5 -14q17 0 49 1.5t73 9.5v588q0 14 6 17.5t17 3.5h60q13 0 16 -3.5t3 -17.5v-582q0 -40 -17.5 -65t-64.5 -33q-38 -6 -77 -8.5t-71 -2.5q-83 0 -141 16t-94 53t-52.5 98
t-16.5 151zM451 824q0 -42 -29.5 -69.5t-72.5 -27.5t-72.5 27t-29.5 70q0 42 29.5 69.5t72.5 27.5t72.5 -27.5t29.5 -69.5zM401 824q0 23 -14.5 37.5t-37.5 14.5t-37.5 -14.5t-14.5 -37.5t14.5 -37.5t37.5 -14.5t37.5 14.5t14.5 37.5z" />
    <glyph glyph-name="uring" unicode="&#x16f;" horiz-adv-x="558" 
d="M65 510q0 11 4 13.5t14 2.5h62q9 0 13.5 -2.5t4.5 -13.5v-264q0 -43 5.5 -74.5t21.5 -52.5t44.5 -31.5t74.5 -10.5q11 0 33 1t53 6v426q0 11 4 13.5t14 2.5h62q9 0 13.5 -2.5t4.5 -13.5v-428q0 -72 -70 -84q-28 -5 -63 -6.5t-59 -1.5q-65 0 -109.5 14t-73 44.5t-41 78.5
t-12.5 116v267zM386 676q0 -42 -29.5 -69.5t-72.5 -27.5t-72.5 27t-29.5 70q0 42 29.5 69.5t72.5 27.5t72.5 -27.5t29.5 -69.5zM336 676q0 23 -14.5 37.5t-37.5 14.5t-37.5 -14.5t-14.5 -37.5t14.5 -37.5t37.5 -14.5t37.5 14.5t14.5 37.5z" />
    <glyph glyph-name="Uhungarumlaut" unicode="&#x170;" horiz-adv-x="684" 
d="M74 679q0 14 6 17.5t17 3.5h60q13 0 18 -3.5t5 -17.5v-371q0 -58 7.5 -100.5t29 -71t62 -42.5t106.5 -14q17 0 49 1.5t73 9.5v588q0 14 6 17.5t17 3.5h60q13 0 16 -3.5t3 -17.5v-582q0 -40 -17.5 -65t-64.5 -33q-38 -6 -77 -8.5t-71 -2.5q-83 0 -141 16t-94 53t-52.5 98
t-16.5 151zM197 788q-5 6 -4.5 10t8.5 10l141 105q5 4 10 5t12 -7l48 -58q6 -6 4.5 -10.5t-6.5 -6.5l-165 -76q-10 -4 -15 -2.5t-10 6.5zM392 788q-5 6 -4.5 10t8.5 10l141 105q5 4 10 5t12 -7l48 -58q6 -6 4.5 -10.5t-6.5 -6.5l-165 -76q-10 -4 -15 -2.5t-10 6.5z" />
    <glyph glyph-name="uhungarumlaut" unicode="&#x171;" horiz-adv-x="558" 
d="M65 510q0 11 4 13.5t14 2.5h62q9 0 13.5 -2.5t4.5 -13.5v-264q0 -43 5.5 -74.5t21.5 -52.5t44.5 -31.5t74.5 -10.5q11 0 33 1t53 6v426q0 11 4 13.5t14 2.5h62q9 0 13.5 -2.5t4.5 -13.5v-428q0 -72 -70 -84q-28 -5 -63 -6.5t-59 -1.5q-65 0 -109.5 14t-73 44.5t-41 78.5
t-12.5 116v267zM166 592q-8 2 -9.5 5.5t3.5 13.5l66 158q2 5 6.5 8.5t14.5 1.5l77 -21q8 -2 9.5 -6.5t-2.5 -9.5l-110 -153q-6 -8 -10.5 -9.5t-12.5 0.5zM309 592q-8 2 -9.5 5.5t3.5 13.5l66 158q2 5 6.5 8.5t14.5 1.5l77 -21q8 -2 9.5 -6.5t-2.5 -9.5l-110 -153
q-6 -8 -10.5 -9.5t-12.5 0.5z" />
    <glyph glyph-name="Uogonek" unicode="&#x172;" horiz-adv-x="684" 
d="M74 679q0 14 6 17.5t17 3.5h60q13 0 18 -3.5t5 -17.5v-371q0 -58 7.5 -100.5t29 -71t62 -42.5t106.5 -14q17 0 49 1.5t73 9.5v588q0 14 6 17.5t17 3.5h60q13 0 16 -3.5t3 -17.5v-582q0 -40 -17.5 -65t-64.5 -33q-30 -5 -61.5 -7.5t-59.5 -3.5q-27 -32 -39.5 -60
t-12.5 -48t13 -26.5t37 -6.5q7 0 21 2.5t28 5.5q8 2 11 1.5t5 -8.5l7 -21q3 -8 0.5 -11.5t-7.5 -5.5q-14 -7 -41 -13.5t-54 -6.5q-52 0 -74 21.5t-23 52.5q-1 32 16.5 66.5t46.5 58.5q-72 3 -122.5 21t-82 55.5t-46 96.5t-14.5 144z" />
    <glyph glyph-name="uogonek" unicode="&#x173;" horiz-adv-x="558" 
d="M65 510q0 11 4 13.5t14 2.5h62q9 0 13.5 -2.5t4.5 -13.5v-264q0 -43 5.5 -74.5t21.5 -52.5t44.5 -31.5t74.5 -10.5q11 0 33 1t53 6v426q0 11 4 13.5t14 2.5h62q9 0 13.5 -2.5t4.5 -13.5v-428q0 -56 -41 -76q-31 -35 -44.5 -65t-13.5 -50t13 -26.5t37 -6.5q7 0 21 2.5
t28 5.5q8 2 11 1.5t5 -8.5l7 -21q3 -8 0.5 -11.5t-7.5 -5.5q-14 -7 -41 -13.5t-54 -6.5q-52 0 -74 21.5t-23 52.5q-1 30 14 61.5t40 56.5q-19 -2 -37.5 -2.5t-32.5 -0.5q-65 0 -109.5 14t-73 44.5t-41 78.5t-12.5 116v267v0z" />
    <glyph glyph-name="Wcircumflex" unicode="&#x174;" horiz-adv-x="836" 
d="M417 584l-32 -160l-80 -375q-5 -23 -15.5 -36t-32.5 -13h-49q-23 0 -37.5 7.5t-19.5 33.5l-135 646q-4 14 9 14h81q16 0 19 -13l73 -405l28 -161h6l32 159l77 370q4 20 16 35t43 15h43q26 0 38 -14t17 -36l74 -365l32 -164h6l30 165l74 401q3 13 19 13h78q12 0 9 -14
l-135 -646q-5 -26 -19.5 -33.5t-37.5 -7.5h-49q-22 0 -32.5 13t-15.5 36l-79 376l-31 159h-4zM571 745q-4 -5 -9 -3.5t-13 5.5l-131 62l-130 -64q-6 -3 -10 -2.5t-9 5.5l-18 21q-3 4 -4 8t4 8l127 102q22 18 41 18q7 0 18 -2.5t26 -15.5l122 -102q12 -9 2 -21z" />
    <glyph glyph-name="wcircumflex" unicode="&#x175;" horiz-adv-x="751" 
d="M373 393l-46 -176l-54 -178q-6 -21 -17 -32.5t-37 -11.5h-43q-19 0 -32 8.5t-20 39.5l-103 473q-3 11 9 11h76q8 0 10.5 -2.5t4.5 -7.5l50 -270l27 -145h6l38 131l64 232q5 16 15.5 29t39.5 13h34q24 0 33 -12.5t15 -32.5l60 -213l44 -156h6l27 154l50 270q2 5 4.5 7.5
t10.5 2.5h76q12 0 9 -11l-104 -473q-7 -31 -22 -39.5t-34 -8.5h-40q-26 0 -36 9t-18 35l-54 184l-45 170h-4zM529 576q-9 -7 -22 2l-130 91l-130 -94q-12 -7 -21 2l-21 22q-7 7 -1 15l132 133q11 11 20.5 15t20.5 4q13 0 22.5 -3.5t21.5 -15.5l126 -131q13 -13 1 -23z" />
    <glyph glyph-name="Ycircumflex" unicode="&#x176;" horiz-adv-x="578" 
d="M342 277v-261q0 -11 -3.5 -13.5t-13.5 -2.5h-66q-9 0 -13.5 2.5t-4.5 13.5v261l-229 412q-2 4 -0.5 8t8.5 4h85q8 0 12.5 -2.5t9.5 -11.5l85 -162l79 -157h4l83 164l81 155q8 14 22 14h79q6 0 7.5 -4t-0.5 -8zM444 745q-4 -5 -9 -3.5t-13 5.5l-131 62l-130 -64
q-6 -3 -10 -2.5t-9 5.5l-18 21q-3 4 -4 8t4 8l127 102q22 18 41 18q7 0 18 -2.5t26 -15.5l122 -102q12 -9 2 -21z" />
    <glyph glyph-name="ycircumflex" unicode="&#x177;" horiz-adv-x="499" 
d="M290 -84q-23 -69 -61.5 -97t-97.5 -28q-13 0 -35 2t-47 9q-16 4 -12 17l12 50q2 9 6 10.5t12 -0.5q17 -4 26 -5.5t23 -1.5q36 0 57 14t33 51l23 69h-21q-16 0 -28 5.5t-21 34.5l-148 468q-3 11 9 11h77q8 0 10.5 -2.5t4.5 -7.5l76 -247l54 -185h6l60 186l82 246
q2 5 4.5 7.5t10.5 2.5h74q12 0 9 -11zM405 581q-9 -7 -22 2l-130 91l-130 -94q-12 -7 -21 2l-21 22q-7 7 -1 15l132 133q11 11 20.5 15t20.5 4q13 0 22.5 -3.5t21.5 -15.5l126 -131q13 -13 1 -23z" />
    <glyph glyph-name="Ydieresis" unicode="&#x178;" horiz-adv-x="578" 
d="M342 277v-261q0 -11 -3.5 -13.5t-13.5 -2.5h-66q-9 0 -13.5 2.5t-4.5 13.5v261l-229 412q-2 4 -0.5 8t8.5 4h85q8 0 12.5 -2.5t9.5 -11.5l85 -162l79 -157h4l83 164l81 155q8 14 22 14h79q6 0 7.5 -4t-0.5 -8zM444 823q0 -23 -18 -41t-41 -18q-24 0 -42.5 18t-18.5 41
q0 11 5 21.5t13.5 19t19 13.5t22.5 5q23 0 41.5 -18t18.5 -41zM260 823q0 -23 -18.5 -41t-41.5 -18q-12 0 -22.5 5t-19 13t-13.5 19t-5 22t5 21.5t13.5 19t19 13.5t22.5 5q23 0 41.5 -18t18.5 -41z" />
    <glyph glyph-name="Zacute" unicode="&#x179;" horiz-adv-x="617" 
d="M512 701q29 0 43.5 -11.5t14.5 -40.5v-21q0 -20 -7.5 -35t-20.5 -30l-392 -468l2 -6h411q11 0 13.5 -4t2.5 -14v-53q0 -10 -2.5 -14t-13.5 -4h-478q-55 0 -55 49v16q0 20 5.5 33t18.5 27l407 484l-2 3h-361q-11 0 -13.5 4t-2.5 13v54q0 9 2.5 13.5t13.5 4.5h414zM250 779
q-5 6 -4.5 10t8.5 10l144 106q5 4 10 5t12 -7l46 -64q6 -6 4.5 -10.5t-6.5 -6.5l-170 -76q-10 -4 -15 -2.5t-10 6.5z" />
    <glyph glyph-name="zacute" unicode="&#x17a;" horiz-adv-x="467" 
d="M400 525q26 0 36.5 -9t10.5 -32v-18q0 -12 -4 -25.5t-14 -24.5l-297 -334l1 -2h296q11 0 14 -4.5t3 -11.5v-48q0 -8 -3 -12t-14 -4h-366q-25 0 -34 11t-9 27v16q0 14 4 29t17 29l294 330l-1 3h-273q-11 0 -14 4t-3 12v48q0 7 3 11.5t14 4.5h339zM208 592q-8 2 -9.5 5.5
t3.5 13.5l66 158q2 5 6.5 8.5t14.5 1.5l77 -21q8 -2 9.5 -6.5t-2.5 -9.5l-110 -153q-6 -8 -10.5 -9.5t-12.5 0.5z" />
    <glyph glyph-name="Zdotaccent" unicode="&#x17b;" horiz-adv-x="617" 
d="M512 701q29 0 43.5 -11.5t14.5 -40.5v-21q0 -20 -7.5 -35t-20.5 -30l-392 -468l2 -6h411q11 0 13.5 -4t2.5 -14v-53q0 -10 -2.5 -14t-13.5 -4h-478q-55 0 -55 49v16q0 20 5.5 33t18.5 27l407 484l-2 3h-361q-11 0 -13.5 4t-2.5 13v54q0 9 2.5 13.5t13.5 4.5h414zM390 810
q0 -25 -19 -43.5t-44 -18.5q-26 0 -44.5 18.5t-18.5 43.5t18.5 43.5t44.5 18.5q25 0 44 -18.5t19 -43.5z" />
    <glyph glyph-name="zdotaccent" unicode="&#x17c;" horiz-adv-x="467" 
d="M400 525q26 0 36.5 -9t10.5 -32v-18q0 -12 -4 -25.5t-14 -24.5l-297 -334l1 -2h296q11 0 14 -4.5t3 -11.5v-48q0 -8 -3 -12t-14 -4h-366q-25 0 -34 11t-9 27v16q0 14 4 29t17 29l294 330l-1 3h-273q-11 0 -14 4t-3 12v48q0 7 3 11.5t14 4.5h339zM312 668q0 -25 -19 -43.5
t-44 -18.5q-26 0 -44.5 18.5t-18.5 43.5t18.5 43.5t44.5 18.5q25 0 44 -18.5t19 -43.5z" />
    <glyph glyph-name="Zcaron" unicode="&#x17d;" horiz-adv-x="617" 
d="M512 701q29 0 43.5 -11.5t14.5 -40.5v-21q0 -20 -7.5 -35t-20.5 -30l-392 -468l2 -6h411q11 0 13.5 -4t2.5 -14v-53q0 -10 -2.5 -14t-13.5 -4h-478q-55 0 -55 49v16q0 20 5.5 33t18.5 27l407 484l-2 3h-361q-11 0 -13.5 4t-2.5 13v54q0 9 2.5 13.5t13.5 4.5h414zM504 881
q6 -5 6.5 -10.5t-7.5 -12.5l-126 -99q-14 -11 -25.5 -14t-18.5 -3q-8 0 -18.5 4t-22.5 13l-132 101q-6 7 1 15l16 23q9 9 21 3l135 -64l130 63q8 4 12.5 5t9.5 -3z" />
    <glyph glyph-name="zcaron" unicode="&#x17e;" horiz-adv-x="467" 
d="M400 525q26 0 36.5 -9t10.5 -32v-18q0 -12 -4 -25.5t-14 -24.5l-297 -334l1 -2h296q11 0 14 -4.5t3 -11.5v-48q0 -8 -3 -12t-14 -4h-366q-25 0 -34 11t-9 27v16q0 14 4 29t17 29l294 330l-1 3h-273q-11 0 -14 4t-3 12v48q0 7 3 11.5t14 4.5h339zM415 751q6 -5 6.5 -10
t-7.5 -13l-126 -131q-12 -12 -21.5 -15.5t-22.5 -3.5q-11 0 -20.5 4t-20.5 15l-132 133q-7 9 1 15l22 20q9 9 21 2l129 -92l130 91q13 9 22 2z" />
    <glyph glyph-name="florin" unicode="&#x192;" horiz-adv-x="595" 
d="M470 429q10 0 12.5 -4t2.5 -12l-1 -41q-1 -7 -4.5 -11.5t-14.5 -4.5h-114q-5 -28 -9.5 -61t-10 -67.5t-10.5 -67.5t-11 -60q-10 -44 -20.5 -79.5t-29 -60.5t-48 -38t-76.5 -13q-19 0 -42.5 3t-40.5 10q-8 3 -7.5 7t2.5 11l14 50q4 12 17 9q20 -4 32 -5t25 -1
q38 0 54.5 31t26.5 78q6 29 11.5 63l11 68t10 66t8.5 57h-82q-11 0 -12.5 4.5t-0.5 11.5v37q0 19 19 19h87q2 10 4 29.5t6 37.5q5 31 15.5 65t30 62t51.5 46.5t81 18.5q15 0 42.5 -1.5t56.5 -10.5q8 -2 8 -7t-1 -11l-8 -52q-1 -6 -6.5 -8.5t-12.5 -0.5q-20 4 -35.5 5.5
t-29.5 1.5q-47 0 -68 -24.5t-31 -78.5q-5 -23 -6.5 -38.5t-4.5 -32.5h109z" />
    <glyph glyph-name="Ohorn" unicode="&#x1a0;" horiz-adv-x="758" 
d="M657 353q0 -176 -77 -270t-227 -94q-147 0 -222.5 90.5t-75.5 269.5q0 87 23 154.5t63.5 113.5t95.5 70t119 24q73 0 129 -24t94 -70q20 1 34.5 7t24.5 19t14.5 33.5t4.5 51.5v39q0 12 5.5 15t13.5 3h45q9 0 13 -3.5t4 -14.5v-42q0 -71 -27 -117t-90 -60q36 -81 36 -195z
M552 349q0 52 -8 101t-29 86t-58.5 59.5t-97.5 22.5q-51 0 -88.5 -21t-62 -57t-37 -84.5t-12.5 -102.5q0 -61 9.5 -111t32 -85.5t60 -55t93.5 -19.5q57 0 95 22.5t61 59.5t32.5 85t9.5 100z" />
    <glyph glyph-name="ohorn" unicode="&#x1a1;" horiz-adv-x="633" 
d="M518 265q0 -134 -60.5 -205t-178.5 -71q-115 0 -174.5 68.5t-59.5 204.5q0 66 18 117t50 86t75.5 53t93.5 18q66 0 114 -24t77 -69q40 3 58.5 26.5t18.5 84.5v39q0 12 5.5 15t13.5 3h45q9 0 13 -3.5t4 -14.5v-42q0 -74 -29.5 -121t-97.5 -59q14 -48 14 -106zM419 262
q0 37 -5.5 72t-20.5 61.5t-41 42.5t-68 16q-36 0 -62.5 -15t-44 -40.5t-26 -60t-8.5 -73.5q0 -44 6.5 -79.5t22.5 -61t42.5 -39.5t65.5 -14q40 0 66.5 16t42.5 42.5t23 61t7 71.5z" />
    <glyph glyph-name="Uhorn" unicode="&#x1af;" horiz-adv-x="781" 
d="M75 684q0 11 2.5 13.5t7.5 2.5h82q6 0 9.5 -2.5t3.5 -13.5v-376q0 -58 7.5 -100.5t29 -71t62 -42.5t106.5 -14q17 0 49 1.5t73 9.5v593q0 11 2.5 13.5t9.5 2.5h80q5 0 7.5 -2.5t2.5 -13.5v-67h6q24 0 40.5 5t26 17.5t14 34t4.5 54.5v39q0 12 5.5 15t13.5 3h45
q9 0 13 -3.5t4 -14.5v-42q0 -42 -8.5 -76t-27.5 -58t-50.5 -36.5t-77.5 -12.5h-8v-445q0 -40 -17.5 -65t-64.5 -33q-38 -6 -77 -8.5t-71 -2.5q-83 0 -141 16t-94 53t-52.5 98t-16.5 151v378v0z" />
    <glyph glyph-name="uhorn" unicode="&#x1b0;" horiz-adv-x="663" 
d="M65 510q0 11 4 13.5t14 2.5h62q9 0 13.5 -2.5t4.5 -13.5v-264q0 -43 5.5 -74.5t21.5 -52.5t44.5 -31.5t74.5 -10.5q11 0 33 1t53 6v426q0 11 4 13.5t14 2.5h62q9 0 13.5 -2.5t4.5 -13.5v-67h7q21 0 36 5t24.5 17.5t14.5 34t5 54.5v39q0 12 5.5 15t13.5 3h45q9 0 13 -3.5
t4 -14.5v-42q0 -85 -36.5 -134t-122.5 -49h-9v-286q0 -72 -70 -84q-28 -5 -63 -6.5t-59 -1.5q-65 0 -109.5 14t-73 44.5t-41 78.5t-12.5 116v267v0z" />
    <glyph glyph-name="AEacute" unicode="&#x1fc;" horiz-adv-x="863" 
d="M799 701q11 0 13.5 -4.5t2.5 -13.5v-57q0 -10 -2.5 -13.5t-13.5 -3.5h-245q-41 0 -59 -18.5t-18 -56.5v-118h292q11 0 13.5 -4t2.5 -14v-53q0 -9 -2.5 -13.5t-13.5 -4.5h-292v-159q0 -32 17.5 -53t59.5 -21h252q11 0 13.5 -4t2.5 -14v-58q0 -9 -2.5 -13.5t-13.5 -4.5
h-260q-88 0 -127 41.5t-44 118.5h-199l-49 -147q-4 -13 -19 -13h-80q-14 0 -9 14l199 579q7 20 18 39.5t30.5 34.5t48.5 24.5t72 9.5h412zM200 243h175v283q0 27 3 51t11 36q-43 0 -60.5 -12t-25.5 -35l-36 -110zM460 779q-5 6 -4.5 10t8.5 10l144 106q5 4 10 5t12 -7
l46 -64q6 -6 4.5 -10.5t-6.5 -6.5l-170 -76q-10 -4 -15 -2.5t-10 6.5z" />
    <glyph glyph-name="aeacute" unicode="&#x1fd;" horiz-adv-x="874" 
d="M618 536q53 0 93 -15t67 -43t41 -66.5t16 -84.5q1 -26 -6 -42.5t-18.5 -26t-27 -13.5t-31.5 -4h-272q1 -53 13 -86t33 -51t48 -24t58 -6q33 0 65.5 9t52.5 20q15 7 21 -6l24 -47q7 -16 -6 -23q-38 -23 -81 -30.5t-83 -7.5q-47 0 -86.5 14t-69.5 35q-23 -14 -51 -23
t-57 -15t-56.5 -8.5t-50.5 -2.5q-65 0 -103.5 15t-58.5 38t-25.5 50.5t-5.5 53.5q0 28 8.5 58.5t31 56t62 42t101.5 16.5h122q13 71 -18 101.5t-95 30.5q-36 0 -74 -6.5t-61 -13.5q-10 -3 -15 -2t-7 10l-13 49q-4 14 9 19q40 16 89 22.5t89 6.5q63 0 102.5 -18t61.5 -52
q31 34 73.5 52t90.5 18zM412 100q-15 29 -22.5 62t-8.5 79h-105q-20 0 -40.5 -4t-37 -14.5t-27.5 -29t-11 -47.5q0 -35 22 -57t76 -22q7 0 25 1t40 4.5t45.5 10t43.5 17.5zM742 319q0 23 -5.5 47t-19.5 43.5t-38.5 32t-61.5 12.5q-31 0 -55 -10.5t-40.5 -29t-26 -43
t-11.5 -52.5h258zM429 592q-8 2 -9.5 5.5t3.5 13.5l66 158q2 5 6.5 8.5t14.5 1.5l77 -21q8 -2 9.5 -6.5t-2.5 -9.5l-110 -153q-6 -8 -10.5 -9.5t-12.5 0.5z" />
    <glyph glyph-name="Oslashacute" unicode="&#x1fe;" horiz-adv-x="712" 
d="M657 353q0 -176 -77 -270t-227 -94q-122 0 -194 63l-40 -53q-5 -7 -9.5 -6.5t-9.5 4.5l-21 13q-10 7 -1 20l45 60q-68 91 -68 259q0 87 23 154.5t63.5 113.5t95.5 70t119 24q59 0 106 -16t83 -45l47 62q9 12 21 2l20 -14q5 -5 5.5 -8t-4.5 -11l-52 -68q75 -93 75 -260z
M552 349q0 50 -7 96t-26 83l-299 -395q23 -25 57 -38t81 -13q57 0 94 22.5t59.5 59.5t31.5 85t9 100zM159 353q0 -53 7 -96.5t24 -78.5l297 394q-22 22 -53.5 34t-74.5 12q-51 0 -88.5 -21t-62 -57t-37 -84.5t-12.5 -102.5zM313 779q-5 6 -4.5 10t8.5 10l144 106q5 4 10 5
t12 -7l46 -64q6 -6 4.5 -10.5t-6.5 -6.5l-170 -76q-10 -4 -15 -2.5t-10 6.5z" />
    <glyph glyph-name="oslashacute" unicode="&#x1ff;" horiz-adv-x="563" 
d="M87 4q-9 -9 -16 -1l-19 17q-10 8 0 17l36 42q-43 65 -43 183q0 66 18 117t50 86t75.5 53t93.5 18q49 0 88.5 -13.5t68.5 -39.5l37 43q5 5 9 4.5t9 -3.5l18 -18q5 -4 5 -7t-5 -9l-41 -47q47 -70 47 -181q0 -134 -60.5 -205t-178.5 -71q-101 0 -159 53zM419 262
q0 29 -3.5 56.5t-11.5 50.5l-223 -257q32 -41 99 -41q40 0 66.5 16t42.5 42.5t23 61t7 71.5zM143 265q0 -31 3 -57.5t11 -49.5l222 257q-15 18 -38.5 28.5t-56.5 10.5q-36 0 -62.5 -15t-44 -40.5t-26 -60t-8.5 -73.5zM260 592q-8 2 -9.5 5.5t3.5 13.5l66 158q2 5 6.5 8.5
t14.5 1.5l77 -21q8 -2 9.5 -6.5t-2.5 -9.5l-110 -153q-6 -8 -10.5 -9.5t-12.5 0.5z" />
    <glyph glyph-name="Scommaaccent" unicode="&#x218;" horiz-adv-x="577" 
d="M548 190q0 -52 -19.5 -90t-53 -62.5t-78 -36.5t-94.5 -12q-62 0 -130 10.5t-128 40.5q-12 5 -5 21l27 61q6 12 18 7q108 -47 200 -47q84 0 120.5 28.5t36.5 75.5q0 24 -10 42.5t-29.5 34t-48 29t-66.5 28.5q-56 22 -98 43t-70.5 45t-43 53t-14.5 67q0 83 55 133.5
t164 50.5q25 0 54 -2.5t57.5 -7.5t55.5 -12.5t50 -17.5q12 -6 7 -17l-23 -64q-3 -8 -6 -9t-8 1q-51 18 -100.5 26.5t-90.5 8.5q-57 0 -84 -24t-27 -58q0 -22 10.5 -38.5t32.5 -31.5t55 -30t78 -34q38 -16 75 -33.5t66 -41.5t47 -57t18 -80zM298 -275q-4 -11 -7 -14.5
t-14 -3.5h-33q-22 0 -20 15l15 191q1 6 4.5 12t13.5 6h87q11 0 15.5 -6t2.5 -12z" />
    <glyph glyph-name="scommaaccent" unicode="&#x219;" horiz-adv-x="473" 
d="M433 145q0 -40 -15 -69t-41 -48.5t-60.5 -29t-73.5 -9.5q-48 0 -102 9t-96 32q-6 3 -9 8.5t2 14.5l21 47q4 8 8.5 10.5t15.5 -2.5q40 -18 82.5 -27t77.5 -9q47 0 71.5 18.5t24.5 50.5q0 34 -31 53.5t-87 39.5q-41 15 -71.5 29.5t-50.5 32.5t-30 40.5t-10 52.5
q0 66 47 106.5t135 40.5q41 0 79.5 -6.5t78.5 -22.5q7 -3 9 -9t0 -12l-21 -53q-3 -7 -7.5 -7t-9.5 2q-41 15 -69.5 20t-62.5 5q-43 0 -63 -17.5t-20 -40.5q0 -15 6 -26.5t19.5 -21.5t35 -19.5t52.5 -21.5q30 -11 59.5 -24t53 -31.5t38 -44t14.5 -61.5zM243 -275
q-4 -11 -7 -14.5t-14 -3.5h-33q-22 0 -20 15l15 191q1 6 4.5 12t13.5 6h87q11 0 15.5 -6t2.5 -12z" />
    <glyph glyph-name="schwa" unicode="&#x259;" horiz-adv-x="542" 
d="M265 -10q-57 0 -98.5 15.5t-68.5 44t-40 69t-13 89.5q0 26 7 42.5t18 26t26 13.5t32 4h272q-1 43 -13 73.5t-33 49t-48 27t-58 8.5q-33 0 -65.5 -9t-52.5 -20q-15 -7 -21 6l-24 47q-7 16 6 23q38 23 81 30.5t83 7.5q115 0 179.5 -64.5t64.5 -206.5q0 -66 -18 -117
t-49.5 -86.5t-74.5 -54t-92 -18.5zM138 216q0 -30 5.5 -56t19.5 -45.5t38.5 -31t62.5 -11.5q31 0 55 12.5t40.5 33t25.5 46t11 52.5h-258z" />
    <glyph glyph-name="primemod" unicode="&#x2b9;" horiz-adv-x="196" 
d="M61 448q-13 5 -6 19l128 283q2 5 6.5 8.5t14.5 1.5l85 -13q8 -2 9.5 -6.5t-2.5 -9.5l-190 -284q-6 -8 -11 -10t-13 0z" />
    <glyph glyph-name="circumflex" unicode="&#x2c6;" horiz-adv-x="573" 
d="M438 576q-9 -7 -22 2l-130 91l-130 -94q-12 -7 -21 2l-21 22q-7 7 -1 15l132 133q11 11 20.5 15t20.5 4q13 0 22.5 -3.5t21.5 -15.5l126 -131q13 -13 1 -23z" />
    <glyph glyph-name="caron" unicode="&#x2c7;" horiz-adv-x="573" 
d="M457 745q6 -5 6.5 -10t-7.5 -13l-126 -131q-12 -12 -21.5 -15.5t-22.5 -3.5q-11 0 -20.5 4t-20.5 15l-132 133q-7 9 1 15l22 20q9 9 21 2l129 -92l130 91q13 9 22 2z" />
    <glyph glyph-name="breve" unicode="&#x2d8;" horiz-adv-x="573" 
d="M282 581q-26 0 -49.5 9t-44.5 24t-39 34.5t-33 40.5q-2 3 -3.5 8t6.5 12l22 19q9 6 12 4.5t11 -7.5q30 -31 62 -49.5t60 -18.5q11 0 23.5 2.5t27.5 10.5t32.5 21.5t39.5 36.5q9 8 12.5 7t8.5 -5l22 -18q9 -8 7.5 -13t-3.5 -8q-45 -59 -90 -84.5t-84 -25.5z" />
    <glyph glyph-name="dotaccent" unicode="&#x2d9;" horiz-adv-x="536" 
d="M328 670q0 -25 -19 -43.5t-44 -18.5q-26 0 -44.5 18.5t-18.5 43.5t18.5 43.5t44.5 18.5q25 0 44 -18.5t19 -43.5z" />
    <glyph glyph-name="ring" unicode="&#x2da;" horiz-adv-x="536" 
d="M390 676q0 -42 -29.5 -69.5t-72.5 -27.5t-72.5 27t-29.5 70q0 42 29.5 69.5t72.5 27.5t72.5 -27.5t29.5 -69.5zM340 676q0 23 -14.5 37.5t-37.5 14.5t-37.5 -14.5t-14.5 -37.5t14.5 -37.5t37.5 -14.5t37.5 14.5t14.5 37.5z" />
    <glyph glyph-name="ogonek" unicode="&#x2db;" horiz-adv-x="492" 
d="M259 7l7.5 4.5t9.5 1.5h33q12 -2 3 -11q-34 -37 -49 -69t-15 -53q0 -20 13 -26.5t37 -6.5q7 0 21 2.5t28 5.5q8 2 11 1.5t5 -8.5l7 -21q3 -8 0.5 -11.5t-7.5 -5.5q-14 -7 -41 -13.5t-54 -6.5q-52 0 -74 21.5t-23 52.5q0 19 6.5 40t18 40t28 35.5t35.5 27.5z" />
    <glyph glyph-name="tilde" unicode="&#x2dc;" horiz-adv-x="570" 
d="M354 619q-18 0 -34.5 5.5t-33 12t-32.5 12.5t-33 6q-13 0 -23.5 -8t-16.5 -19q-3 -5 -7.5 -7.5t-13.5 1.5l-34 15q-9 3 -12 6t1 11q17 30 43 52t65 22q18 0 34 -6t31.5 -13.5t30 -13.5t28.5 -6q15 0 26.5 8t16.5 20q4 8 7.5 9t11.5 -1l39 -11q17 -3 12 -15
q-17 -37 -41 -58.5t-65 -21.5z" />
    <glyph glyph-name="hungarumlaut" unicode="&#x2dd;" horiz-adv-x="548" 
d="M176 592q-8 2 -9.5 5.5t3.5 13.5l66 158q2 5 6.5 8.5t14.5 1.5l77 -21q8 -2 9.5 -6.5t-2.5 -9.5l-110 -153q-6 -8 -10.5 -9.5t-12.5 0.5zM319 592q-8 2 -9.5 5.5t3.5 13.5l66 158q2 5 6.5 8.5t14.5 1.5l77 -21q8 -2 9.5 -6.5t-2.5 -9.5l-110 -153q-6 -8 -10.5 -9.5
t-12.5 0.5z" />
    <glyph glyph-name="tonos" unicode="&#x384;" horiz-adv-x="483" 
d="M214 592q-8 3 -9.5 6t3.5 13l66 158q2 5 6.5 8.5t14.5 1.5l77 -21q8 -2 9.5 -6.5t-2.5 -9.5l-110 -153q-6 -8 -10.5 -9.5t-12.5 0.5z" />
    <glyph glyph-name="dieresistonos" unicode="&#x385;" horiz-adv-x="553" 
d="M476 670q0 -25 -18.5 -43.5t-44.5 -18.5t-44.5 18.5t-18.5 43.5t18.5 43.5t44.5 18.5t44.5 -18t18.5 -44zM204 670q0 -25 -18.5 -43.5t-43.5 -18.5q-26 0 -45 18.5t-19 43.5t19 43.5t45 18.5q25 0 43.5 -18t18.5 -44zM227 582q-8 2 -12.5 5t-2.5 14l34 164q2 5 5.5 9
t14.5 4l80 -11q15 -1 10 -15l-80 -165q-5 -9 -9 -11.5t-13 -0.5z" />
    <glyph glyph-name="Alphatonos" unicode="&#x386;" horiz-adv-x="636" 
d="M-19 542q-8 3 -9.5 6t3.5 13l66 158q2 5 6.5 8.5t14.5 1.5l77 -21q8 -2 9.5 -6.5t-2.5 -9.5l-110 -153q-6 -8 -10.5 -9.5t-12.5 0.5zM527 0q-11 0 -17 2t-10 14l-47 142h-271l-47 -142q-3 -8 -8 -12t-16 -4h-77q-11 0 -14 6.5t0 14.5l222 637q9 26 20 34.5t37 9.5h33
q30 0 41 -9.5t19 -34.5l223 -637q3 -8 0 -14.5t-13 -6.5h-75zM362 442l-45 142h-5l-42 -137l-61 -198h214z" />
    <glyph glyph-name="anoteleia" unicode="&#x387;" horiz-adv-x="273" 
d="M216 457q0 -33 -23 -56t-57 -23q-33 0 -55.5 22.5t-22.5 56.5q0 33 22.5 56t55.5 23q35 0 57.5 -22.5t22.5 -56.5z" />
    <glyph glyph-name="Epsilontonos" unicode="&#x388;" horiz-adv-x="558" 
d="M-137 542q-8 3 -9.5 6t3.5 13l66 158q2 5 6.5 8.5t14.5 1.5l77 -21q8 -2 9.5 -6.5t-2.5 -9.5l-110 -153q-6 -8 -10.5 -9.5t-12.5 0.5zM541 23q0 -11 -3.5 -17t-17.5 -6h-278q-51 0 -84.5 14.5t-53.5 38.5t-28 56t-8 67v348q0 35 9.5 67t30.5 56.5t54 39t80 14.5h274
q14 0 17.5 -6t3.5 -17v-48q0 -13 -3.5 -17.5t-17.5 -4.5h-274q-38 0 -54.5 -16.5t-16.5 -52.5v-123h312q13 0 16.5 -5t3.5 -18v-42q0 -11 -3.5 -17t-16.5 -6h-312v-166q0 -30 16.5 -49t54.5 -19h278q14 0 17.5 -5t3.5 -18v-48z" />
    <glyph glyph-name="Etatonos" unicode="&#x389;" horiz-adv-x="677" 
d="M-150 542q-8 3 -9.5 6t3.5 13l66 158q2 5 6.5 8.5t14.5 1.5l77 -21q8 -2 9.5 -6.5t-2.5 -9.5l-110 -153q-6 -8 -10.5 -9.5t-12.5 0.5zM506 679q0 14 6 17.5t17 3.5h58q13 0 18 -3.5t5 -17.5v-658q0 -14 -5 -17.5t-18 -3.5h-58q-11 0 -17 3.5t-6 17.5v303h-336v-303
q0 -14 -5 -17.5t-18 -3.5h-58q-11 0 -17 3.5t-6 17.5v658q0 14 6 17.5t17 3.5h58q13 0 18 -3.5t5 -17.5v-266h336v266z" />
    <glyph glyph-name="Iotatonos" unicode="&#x38a;" horiz-adv-x="288" 
d="M-122 542q-8 3 -9.5 6t3.5 13l66 158q2 5 6.5 8.5t14.5 1.5l77 -21q8 -2 9.5 -6.5t-2.5 -9.5l-110 -153q-6 -8 -10.5 -9.5t-12.5 0.5zM94 679q0 14 6 17.5t17 3.5h58q13 0 18 -3.5t5 -17.5v-658q0 -14 -5 -17.5t-18 -3.5h-58q-11 0 -17 3.5t-6 17.5v658z" />
    <glyph glyph-name="Omicrontonos" unicode="&#x38c;" horiz-adv-x="722" 
d="M-99 542q-8 3 -9.5 6t3.5 13l66 158q2 5 6.5 8.5t14.5 1.5l77 -21q8 -2 9.5 -6.5t-2.5 -9.5l-110 -153q-6 -8 -10.5 -9.5t-12.5 0.5zM660 353q0 -176 -77 -270t-227 -94q-147 0 -222.5 90.5t-75.5 269.5q0 87 23 154.5t63.5 113.5t95.5 70t119 24q74 0 130 -24.5t94 -71
t57.5 -112.5t19.5 -150zM555 349q0 52 -8 101t-29 86t-58.5 59.5t-97.5 22.5q-51 0 -88.5 -21t-62 -57t-37 -84.5t-12.5 -102.5q0 -61 9.5 -111t32 -85.5t60 -55t93.5 -19.5q57 0 95 22.5t61 59.5t32.5 85t9.5 100z" />
    <glyph glyph-name="Upsilontonos" unicode="&#x38e;" horiz-adv-x="604" 
d="M-185 542q-8 3 -9.5 6t3.5 13l66 158q2 5 6.5 8.5t14.5 1.5l77 -21q8 -2 9.5 -6.5t-2.5 -9.5l-110 -153q-6 -8 -10.5 -9.5t-12.5 0.5zM332 277v-261q0 -11 -3.5 -13.5t-13.5 -2.5h-66q-9 0 -13.5 2.5t-4.5 13.5v261l-229 412q-2 4 -0.5 8t8.5 4h85q8 0 12.5 -2.5
t9.5 -11.5l85 -162l79 -157h4l83 164l81 155q8 14 22 14h79q6 0 7.5 -4t-0.5 -8z" />
    <glyph glyph-name="Omegatonos" unicode="&#x38f;" horiz-adv-x="744" 
d="M-70 542q-8 3 -9.5 6t3.5 13l66 158q2 5 6.5 8.5t14.5 1.5l77 -21q8 -2 9.5 -6.5t-2.5 -9.5l-110 -153q-6 -8 -10.5 -9.5t-12.5 0.5zM580 89h101q11 0 14.5 -4t3.5 -14v-53q0 -10 -3.5 -14t-14.5 -4h-191q-24 0 -37.5 10t-13.5 36v20q0 20 9 30t32 28q56 43 76.5 102.5
t20.5 131.5q0 58 -12.5 106t-37.5 82t-63 52.5t-89 18.5q-48 0 -85.5 -19t-63.5 -52.5t-39.5 -81t-13.5 -104.5q0 -32 4 -63t14.5 -60t30 -56.5t49.5 -51.5q14 -11 22.5 -18.5t13 -13.5t5.5 -12t1 -16v-19q0 -26 -13 -38t-34 -12h-203q-11 0 -14.5 4t-3.5 14v53q0 10 3.5 14
t14.5 4h102l2 3q-32 27 -51.5 60t-30.5 68t-15 70.5t-4 68.5q0 76 22 140.5t62.5 111.5t97.5 73.5t127 26.5q72 0 129 -25.5t96.5 -72t60.5 -111t21 -143.5q0 -73 -23.5 -143t-80.5 -124z" />
    <glyph glyph-name="iotadieresistonos" unicode="&#x390;" horiz-adv-x="279" 
d="M334 670q0 -25 -18.5 -43.5t-44.5 -18.5t-44.5 18.5t-18.5 43.5t18.5 43.5t44.5 18.5t44.5 -18t18.5 -44zM62 670q0 -25 -18.5 -43.5t-43.5 -18.5q-26 0 -45 18.5t-19 43.5t19 43.5t45 18.5q25 0 43.5 -18t18.5 -44zM85 582q-8 2 -12.5 5t-2.5 14l34 164q2 5 5.5 9
t14.5 4l80 -11q15 -1 10 -15l-80 -165q-5 -9 -9 -11.5t-13 -0.5zM263 22q1 -9 -0.5 -12.5t-10.5 -8.5q-19 -8 -42 -10t-40 -2q-53 0 -74 24.5t-21 78.5v417q0 11 3 13.5t13 2.5h64q10 0 14 -2.5t4 -13.5v-390q0 -27 7.5 -35.5t25.5 -8.5q9 0 18.5 0.5t17.5 1.5t11 -1t4 -10z
" />
    <glyph glyph-name="Alpha" unicode="&#x391;" horiz-adv-x="629" 
d="M524 0q-11 0 -17 2t-10 14l-47 142h-271l-47 -142q-3 -8 -8 -12t-16 -4h-77q-11 0 -14 6.5t0 14.5l222 637q9 26 20 34.5t37 9.5h33q30 0 41 -9.5t19 -34.5l223 -637q3 -8 0 -14.5t-13 -6.5h-75zM359 442l-45 142h-5l-42 -137l-61 -198h214z" />
    <glyph glyph-name="Beta" unicode="&#x392;" horiz-adv-x="654" 
d="M492 217q0 54 -34 87.5t-100 33.5h-179v-243h178q40 0 66 12t41.5 30t21.5 39.5t6 40.5zM179 425h177q15 0 33.5 4t34.5 14.5t26.5 29.5t10.5 49q0 40 -26.5 63t-71.5 23h-184v-183zM489 385q57 -22 83.5 -71t26.5 -104q0 -47 -18 -85.5t-49.5 -66.5t-73.5 -43t-90 -15
h-239q-29 0 -41.5 12.5t-12.5 41.5v593q0 29 12.5 41.5t41.5 12.5l223 1q47 0 87 -9.5t69 -30.5t45 -53.5t16 -78.5t-23 -82.5t-57 -55.5v-7z" />
    <glyph glyph-name="Gamma" unicode="&#x393;" horiz-adv-x="548" 
d="M178 21q0 -14 -5 -17.5t-18 -3.5h-57q-11 0 -17 3.5t-6 17.5v503q0 35 8.5 67t28.5 56.5t53.5 39t83.5 14.5h267q14 0 17.5 -6t3.5 -17v-47q0 -13 -3.5 -18t-17.5 -5h-267q-38 0 -54.5 -16t-16.5 -52v-519z" />
    <glyph glyph-name="Delta" unicode="&#x394;" horiz-adv-x="627" 
d="M370 435l-56 161h-4l-56 -165l-120 -335l3 -3h354l2 3zM596 101q5 -11 8 -22t3 -24v-11q0 -23 -12 -33.5t-28 -10.5h-505q-26 0 -35 12t-9 32v11q0 18 8 38l213 565q9 26 20 34.5t37 9.5h33q30 0 41 -9.5t19 -34.5z" />
    <glyph glyph-name="Delta" unicode="&#x2206;" horiz-adv-x="627" 
d="M370 435l-56 161h-4l-56 -165l-120 -335l3 -3h354l2 3zM596 101q5 -11 8 -22t3 -24v-11q0 -23 -12 -33.5t-28 -10.5h-505q-26 0 -35 12t-9 32v11q0 18 8 38l213 565q9 26 20 34.5t37 9.5h33q30 0 41 -9.5t19 -34.5z" />
    <glyph glyph-name="Epsilon" unicode="&#x395;" horiz-adv-x="588" 
d="M548 23q0 -11 -3.5 -17t-17.5 -6h-278q-51 0 -84.5 14.5t-53.5 38.5t-28 56t-8 67v348q0 35 9.5 67t30.5 56.5t54 39t80 14.5h274q14 0 17.5 -6t3.5 -17v-48q0 -13 -3.5 -17.5t-17.5 -4.5h-274q-38 0 -54.5 -16.5t-16.5 -52.5v-123h312q13 0 16.5 -5t3.5 -18v-42
q0 -11 -3.5 -17t-16.5 -6h-312v-166q0 -30 16.5 -49t54.5 -19h278q14 0 17.5 -5t3.5 -18v-48v0z" />
    <glyph glyph-name="Zeta" unicode="&#x396;" horiz-adv-x="617" 
d="M512 701q29 0 43.5 -11.5t14.5 -40.5v-21q0 -20 -7.5 -35t-20.5 -30l-392 -468l2 -6h411q11 0 13.5 -4t2.5 -14v-53q0 -10 -2.5 -14t-13.5 -4h-478q-55 0 -55 49v16q0 20 5.5 33t18.5 27l407 484l-2 3h-361q-11 0 -13.5 4t-2.5 13v54q0 9 2.5 13.5t13.5 4.5h414z" />
    <glyph glyph-name="Eta" unicode="&#x397;" horiz-adv-x="694" 
d="M515 679q0 14 6 17.5t17 3.5h58q13 0 18 -3.5t5 -17.5v-658q0 -14 -5 -17.5t-18 -3.5h-58q-11 0 -17 3.5t-6 17.5v303h-336v-303q0 -14 -5 -17.5t-18 -3.5h-58q-11 0 -17 3.5t-6 17.5v658q0 14 6 17.5t17 3.5h58q13 0 18 -3.5t5 -17.5v-266h336v266z" />
    <glyph glyph-name="Theta" unicode="&#x398;" horiz-adv-x="722" 
d="M493 409q11 0 13.5 -4t2.5 -14v-53q0 -9 -2.5 -13.5t-13.5 -4.5h-261q-11 0 -13.5 4.5t-2.5 13.5v53q0 10 2.5 14t13.5 4h261zM667 353q0 -176 -79.5 -270t-229.5 -94q-147 0 -225 90.5t-78 269.5q0 87 24 154.5t65.5 113.5t97 70t119.5 24q74 0 131 -24.5t96 -71
t59 -112.5t20 -150zM562 349q0 52 -9.5 101t-32 86t-60.5 59.5t-96 22.5q-48 0 -86 -21t-64.5 -57t-40.5 -84.5t-14 -102.5q0 -61 10.5 -111t34.5 -85.5t62 -55t93 -19.5q56 0 94.5 22.5t62.5 59.5t35 85t11 100z" />
    <glyph glyph-name="Iota" unicode="&#x399;" horiz-adv-x="275" 
d="M86 679q0 14 6 17.5t17 3.5h58q13 0 18 -3.5t5 -17.5v-658q0 -14 -5 -17.5t-18 -3.5h-58q-11 0 -17 3.5t-6 17.5v658z" />
    <glyph glyph-name="Kappa" unicode="&#x39a;" horiz-adv-x="639" 
d="M75 679q0 14 6 17.5t17 3.5h56q13 0 18 -3.5t5 -17.5v-326l4 -2l104 131l169 205q5 5 13.5 9t20.5 4h85q9 0 11.5 -5t-2.5 -11l-193 -235l241 -427q5 -10 2.5 -16t-12.5 -6h-72q-17 0 -25 3t-16 17l-190 343l-140 -174v-168q0 -14 -5 -17.5t-18 -3.5h-56q-11 0 -17 3.5
t-6 17.5v658z" />
    <glyph glyph-name="Lambda" unicode="&#x39b;" horiz-adv-x="636" 
d="M359 442l-45 142h-5l-42 -137l-135 -431q-3 -8 -8 -12t-16 -4h-77q-11 0 -14 6.5t0 14.5l222 637q9 26 20 34.5t37 9.5h33q30 0 41 -9.5t19 -34.5l223 -637q3 -8 0 -14.5t-13 -6.5h-75q-11 0 -17 2t-10 14z" />
    <glyph glyph-name="Mu" unicode="&#x39c;" horiz-adv-x="818" 
d="M644 516h-6l-57 -149l-96 -241q-10 -26 -20.5 -35t-36.5 -9h-38q-26 0 -36.5 9t-20.5 35l-97 237l-56 141h-6v-483q0 -14 -5 -17.5t-18 -3.5h-53q-11 0 -17 3.5t-6 17.5v625q0 26 11 40.5t43 14.5h31q23 0 36 -8t24 -35l129 -326l58 -152h4l57 149l130 329q11 27 24 35
t36 8h31q32 0 43 -14.5t11 -40.5v-625q0 -14 -5 -17.5t-18 -3.5h-53q-11 0 -17 3.5t-6 17.5v495z" />
    <glyph glyph-name="Nu" unicode="&#x39d;" horiz-adv-x="700" 
d="M524 680q0 14 6 17.5t17 3.5h55q13 0 18 -3.5t5 -17.5v-625q0 -28 -11.5 -41.5t-42.5 -13.5h-30q-24 0 -35 10t-25 33l-220 367l-82 142h-3v-531q0 -14 -5 -17.5t-18 -3.5h-55q-11 0 -17 3.5t-6 17.5v625q0 28 11.5 41.5t42.5 13.5h30q24 0 35 -10t25 -33l217 -363
l85 -146h3v531z" />
    <glyph glyph-name="Xi" unicode="&#x39e;" horiz-adv-x="594" 
d="M529 701q11 0 13.5 -4.5t2.5 -13.5v-60q0 -10 -2.5 -13.5t-13.5 -3.5h-467q-11 0 -13.5 3.5t-2.5 13.5v60q0 9 2.5 13.5t13.5 4.5h467zM493 417q11 0 13.5 -4t2.5 -14v-53q0 -9 -2.5 -13.5t-13.5 -4.5h-395q-11 0 -13.5 4.5t-2.5 13.5v53q0 10 2.5 14t13.5 4h395zM56 0
q-11 0 -13.5 4.5t-2.5 13.5v62q0 10 2.5 14t13.5 4h482q11 0 13.5 -4t2.5 -14v-62q0 -9 -2.5 -13.5t-13.5 -4.5h-482z" />
    <glyph glyph-name="Omicron" unicode="&#x39f;" horiz-adv-x="712" 
d="M657 353q0 -176 -77 -270t-227 -94q-147 0 -222.5 90.5t-75.5 269.5q0 87 23 154.5t63.5 113.5t95.5 70t119 24q74 0 130 -24.5t94 -71t57.5 -112.5t19.5 -150zM552 349q0 52 -8 101t-29 86t-58.5 59.5t-97.5 22.5q-51 0 -88.5 -21t-62 -57t-37 -84.5t-12.5 -102.5
q0 -61 9.5 -111t32 -85.5t60 -55t93.5 -19.5q57 0 95 22.5t61 59.5t32.5 85t9.5 100z" />
    <glyph glyph-name="Pi" unicode="&#x3a0;" horiz-adv-x="692" 
d="M617 16q0 -11 -4 -13.5t-14 -2.5h-67q-9 0 -13.5 2.5t-4.5 13.5v593h-335v-593q0 -11 -4 -13.5t-14 -2.5h-68q-9 0 -13.5 2.5t-4.5 13.5v617q0 35 18.5 51.5t45.5 16.5h414q29 0 46.5 -16.5t17.5 -51.5v-617v0z" />
    <glyph glyph-name="Rho" unicode="&#x3a1;" horiz-adv-x="613" 
d="M75 648q0 29 12.5 41.5t41.5 12.5h233q48 0 88.5 -15t69.5 -43t45.5 -66.5t16.5 -85.5q0 -27 -9 -64.5t-33.5 -71.5t-68.5 -57.5t-113 -23.5h-181v-254q0 -14 -5 -17.5t-18 -3.5h-56q-11 0 -17 3.5t-6 17.5v627zM475 485q0 19 -6 40.5t-21.5 39.5t-42 30t-68.5 12h-159
v-241h162q71 0 103 33t32 86z" />
    <glyph glyph-name="Sigma" unicode="&#x3a3;" horiz-adv-x="580" 
d="M163 94h381q11 0 13.5 -4t2.5 -14v-58q0 -10 -2.5 -14t-13.5 -4h-471q-18 0 -30.5 9.5t-12.5 32.5v19q0 20 9.5 37.5t21.5 32.5l189 233l-177 193q-17 18 -23.5 31t-6.5 33v26q0 30 16 42t40 12h425q11 0 13.5 -4.5t2.5 -13.5v-57q0 -9 -2.5 -13t-13.5 -4h-365l-2 -4
l170 -177q17 -17 25.5 -31.5t9.5 -28.5q1 -26 -31 -64l-170 -206z" />
    <glyph glyph-name="Tau" unicode="&#x3a4;" horiz-adv-x="555" 
d="M222 609h-191q-11 0 -13.5 4t-2.5 13v56q0 9 2.5 13.5t13.5 4.5h493q11 0 13.5 -4.5t2.5 -13.5v-56q0 -9 -2.5 -13t-13.5 -4h-196v-588q0 -14 -5 -17.5t-18 -3.5h-60q-11 0 -17 3.5t-6 17.5v588z" />
    <glyph glyph-name="Upsilon" unicode="&#x3a5;" horiz-adv-x="578" 
d="M342 277v-261q0 -11 -3.5 -13.5t-13.5 -2.5h-66q-9 0 -13.5 2.5t-4.5 13.5v261l-229 412q-2 4 -0.5 8t8.5 4h85q8 0 12.5 -2.5t9.5 -11.5l85 -162l79 -157h4l83 164l81 155q8 14 22 14h79q6 0 7.5 -4t-0.5 -8z" />
    <glyph glyph-name="Phi" unicode="&#x3a6;" horiz-adv-x="838" 
d="M468 143q55 4 95.5 22t67.5 47t40 67t13 81t-12.5 80.5t-38.5 66.5t-67 47.5t-98 23.5v-435zM364 577q-50 -6 -89 -24.5t-66 -47.5t-41 -66t-14 -79q0 -43 12.5 -80t38.5 -65.5t65.5 -47t93.5 -23.5v433zM468 16q0 -11 -4 -13.5t-14 -2.5h-68q-9 0 -13.5 2.5t-4.5 13.5
v42q-149 14 -229 93t-80 209q0 64 22.5 117t63.5 92t97.5 62.5t125.5 30.5v22q0 11 4.5 13.5t13.5 2.5h68q10 0 14 -2.5t4 -13.5v-22q153 -13 234 -92t81 -210q0 -65 -23.5 -117.5t-65 -91.5t-99.5 -62.5t-127 -30.5v-42z" />
    <glyph glyph-name="Chi" unicode="&#x3a7;" horiz-adv-x="571" 
d="M559 14q2 -5 0.5 -9.5t-9.5 -4.5h-82q-13 0 -19 3.5t-11 11.5l-154 263l-155 -263q-5 -8 -11 -11.5t-19 -3.5h-79q-8 0 -9.5 4.5t1.5 9.5l214 345l-201 329q-2 4 -0.5 8.5t9.5 4.5h79q14 0 19.5 -2.5t10.5 -12.5l144 -243l143 243q5 9 11 12t19 3h75q8 0 9.5 -5t-1.5 -10
l-199 -324l215 -348v0z" />
    <glyph glyph-name="Psi" unicode="&#x3a8;" horiz-adv-x="804" 
d="M640 684q0 11 4.5 13.5t13.5 2.5h68q10 0 14 -2.5t4 -13.5v-207q0 -69 -22 -123t-61 -91.5t-93 -59t-118 -26.5v-161q0 -11 -4 -13.5t-14 -2.5h-67q-9 0 -13.5 2.5t-4.5 13.5v161q-139 8 -213 86t-74 216v205q0 11 4.5 13.5t13.5 2.5h68q10 0 14 -2.5t4 -13.5v-223
q0 -82 43.5 -134t139.5 -58v415q0 11 4.5 13.5t13.5 2.5h67q10 0 14 -2.5t4 -13.5v-416q90 8 140 55.5t50 135.5v225v0z" />
    <glyph glyph-name="Omega" unicode="&#x3a9;" horiz-adv-x="744" 
d="M580 89h101q11 0 14.5 -4t3.5 -14v-53q0 -10 -3.5 -14t-14.5 -4h-191q-24 0 -37.5 10t-13.5 36v20q0 20 9 30t32 28q56 43 76.5 102.5t20.5 131.5q0 58 -12.5 106t-37.5 82t-63 52.5t-89 18.5q-48 0 -85.5 -19t-63.5 -52.5t-39.5 -81t-13.5 -104.5q0 -32 4 -63t14.5 -60
t30 -56.5t49.5 -51.5q14 -11 22.5 -18.5t13 -13.5t5.5 -12t1 -16v-19q0 -26 -13 -38t-34 -12h-203q-11 0 -14.5 4t-3.5 14v53q0 10 3.5 14t14.5 4h102l2 3q-32 27 -51.5 60t-30.5 68t-15 70.5t-4 68.5q0 76 22 140.5t62.5 111.5t97.5 73.5t127 26.5q72 0 129 -25.5t96.5 -72
t60.5 -111t21 -143.5q0 -73 -23.5 -143t-80.5 -124z" />
    <glyph glyph-name="Iotadieresis" unicode="&#x3aa;" horiz-adv-x="275" 
d="M86 679q0 14 6 17.5t17 3.5h58q13 0 18 -3.5t5 -17.5v-658q0 -14 -5 -17.5t-18 -3.5h-58q-11 0 -17 3.5t-6 17.5v658zM291 814q0 -23 -18 -41t-41 -18q-24 0 -42.5 18t-18.5 41q0 11 5 21.5t13.5 19t19 13.5t22.5 5q23 0 41.5 -18t18.5 -41zM107 814q0 -23 -18.5 -41
t-41.5 -18q-12 0 -22.5 5t-19 13t-13.5 19t-5 22t5 21.5t13.5 19t19 13.5t22.5 5q23 0 41.5 -18t18.5 -41z" />
    <glyph glyph-name="Upsilondieresis" unicode="&#x3ab;" horiz-adv-x="578" 
d="M342 277v-261q0 -11 -3.5 -13.5t-13.5 -2.5h-66q-9 0 -13.5 2.5t-4.5 13.5v261l-229 412q-2 4 -0.5 8t8.5 4h85q8 0 12.5 -2.5t9.5 -11.5l85 -162l79 -157h4l83 164l81 155q8 14 22 14h79q6 0 7.5 -4t-0.5 -8zM445 796q0 -23 -18 -41t-41 -18q-24 0 -42.5 18t-18.5 41
q0 11 5 21.5t13.5 19t19 13.5t22.5 5q23 0 41.5 -18t18.5 -41zM261 796q0 -23 -18.5 -41t-41.5 -18q-12 0 -22.5 5t-19 13t-13.5 19t-5 22t5 21.5t13.5 19t19 13.5t22.5 5q23 0 41.5 -18t18.5 -41z" />
    <glyph glyph-name="alphatonos" unicode="&#x3ac;" horiz-adv-x="565" 
d="M263 592q-8 3 -9.5 6t3.5 13l66 158q2 5 6.5 8.5t14.5 1.5l77 -21q8 -2 9.5 -6.5t-2.5 -9.5l-110 -153q-6 -8 -10.5 -9.5t-12.5 0.5zM45 254q0 56 13.5 107t43.5 90t79 62t121 23q32 0 76.5 -4.5t96.5 -17.5q18 -5 21.5 -12.5t3.5 -18.5v-439q0 -14 -13 -19
q-26 -11 -54.5 -18t-56.5 -11t-53 -5.5t-44 -1.5q-64 0 -108.5 19t-72.5 53.5t-40.5 83.5t-12.5 109zM147 254q0 -99 37 -140t111 -41q24 0 55.5 4t50.5 12v349q-28 8 -55 10.5t-50 2.5q-32 0 -59 -10.5t-47 -34t-31.5 -61t-11.5 -91.5z" />
    <glyph glyph-name="epsilontonos" unicode="&#x3ad;" horiz-adv-x="465" 
d="M197 592q-8 3 -9.5 6t3.5 13l66 158q2 5 6.5 8.5t14.5 1.5l77 -21q8 -2 9.5 -6.5t-2.5 -9.5l-110 -153q-6 -8 -10.5 -9.5t-12.5 0.5zM253 536q41 0 83 -8.5t76 -27.5q15 -8 7 -23l-23 -48q-2 -6 -5.5 -8.5t-14.5 2.5q-24 10 -56 18.5t-64 8.5q-29 0 -48 -6.5t-30.5 -16
t-16.5 -20.5t-5 -20q0 -39 30.5 -52.5t90.5 -18.5q19 -2 28 -7.5t9 -21.5v-20q0 -18 -11.5 -23t-25.5 -6q-61 -3 -97 -26t-35 -66q0 -13 5 -26.5t18 -25t35.5 -18.5t56.5 -7q16 0 35.5 3.5t38 8.5t34.5 11t26 12q10 5 14 2.5t7 -8.5l21 -43q10 -15 -5 -23
q-22 -12 -46.5 -20.5t-48.5 -13.5t-46 -7t-39 -2q-53 0 -91.5 11t-63.5 31t-37.5 47.5t-12.5 59.5q0 24 8 46t21.5 40.5t32 31.5t38.5 18v2q-47 11 -67.5 42t-21.5 67q0 30 11.5 57.5t36 48t61.5 33t87 12.5z" />
    <glyph glyph-name="etatonos" unicode="&#x3ae;" horiz-adv-x="568" 
d="M229 592q-8 3 -9.5 6t3.5 13l66 158q2 5 6.5 8.5t14.5 1.5l77 -21q8 -2 9.5 -6.5t-2.5 -9.5l-110 -153q-6 -8 -10.5 -9.5t-12.5 0.5zM503 16q0 -11 -4 -13.5t-14 -2.5h-62q-9 0 -13.5 2.5t-4.5 13.5v264q0 43 -7 74.5t-25 52.5t-48 31.5t-76 10.5q-11 0 -33 -1t-53 -6
v-426q0 -11 -4 -13.5t-14 -2.5h-62q-9 0 -13.5 2.5t-4.5 13.5v428q0 74 70 84q10 1 26 2.5t33.5 3t34 2t28.5 0.5q64 0 110.5 -14t76.5 -44.5t44.5 -78.5t14.5 -116v-267z" />
    <glyph glyph-name="iotatonos" unicode="&#x3af;" horiz-adv-x="279" 
d="M92 592q-8 3 -9.5 6t3.5 13l66 158q2 5 6.5 8.5t14.5 1.5l77 -21q8 -2 9.5 -6.5t-2.5 -9.5l-110 -153q-6 -8 -10.5 -9.5t-12.5 0.5zM263 22q1 -9 -0.5 -12.5t-10.5 -8.5q-19 -8 -42 -10t-40 -2q-53 0 -74 24.5t-21 78.5v417q0 11 3 13.5t13 2.5h64q10 0 14 -2.5t4 -13.5
v-390q0 -27 7.5 -35.5t25.5 -8.5q9 0 18.5 0.5t17.5 1.5t11 -1t4 -10z" />
    <glyph glyph-name="upsilondieresistonos" unicode="&#x3b0;" horiz-adv-x="579" 
d="M416 509q0 11 4.5 13.5t13.5 2.5h62q10 0 14 -2.5t4 -13.5v-285q0 -118 -58.5 -176.5t-162.5 -58.5q-119 0 -173.5 57t-54.5 164v299q0 11 4.5 13.5t13.5 2.5h62q10 0 14 -2.5t4 -13.5v-309q0 -60 29.5 -94.5t92.5 -34.5q37 0 62 10.5t40.5 28t22 41t6.5 50.5v308z
M500 670q0 -25 -18.5 -43.5t-44.5 -18.5t-44.5 18.5t-18.5 43.5t18.5 43.5t44.5 18.5t44.5 -18t18.5 -44zM228 670q0 -25 -18.5 -43.5t-43.5 -18.5q-26 0 -45 18.5t-19 43.5t19 43.5t45 18.5q25 0 43.5 -18t18.5 -44zM251 582q-8 2 -12.5 5t-2.5 14l34 164q2 5 5.5 9t14.5 4
l80 -11q15 -1 10 -15l-80 -165q-5 -9 -9 -11.5t-13 -0.5z" />
    <glyph glyph-name="alpha" unicode="&#x3b1;" horiz-adv-x="565" 
d="M45 254q0 56 13.5 107t43.5 90t79 62t121 23q32 0 76.5 -4.5t96.5 -17.5q18 -5 21.5 -12.5t3.5 -18.5v-439q0 -14 -13 -19q-26 -11 -54.5 -18t-56.5 -11t-53 -5.5t-44 -1.5q-64 0 -108.5 19t-72.5 53.5t-40.5 83.5t-12.5 109zM147 254q0 -99 37 -140t111 -41q24 0 55.5 4
t50.5 12v349q-28 8 -55 10.5t-50 2.5q-32 0 -59 -10.5t-47 -34t-31.5 -61t-11.5 -91.5z" />
    <glyph glyph-name="beta" unicode="&#x3b2;" horiz-adv-x="559" 
d="M273 733q54 0 92.5 -15.5t63 -41t36 -58t11.5 -65.5q0 -16 -4.5 -36t-14.5 -39t-26 -36t-40 -27v-3q29 -7 52 -24.5t38.5 -43t24 -56t8.5 -62.5q0 -58 -18.5 -102t-51 -74t-77.5 -45.5t-98 -15.5t-104 9t-86 25q-10 5 -12 10t-2 14v456q0 108 55.5 169t152.5 61zM273 652
q-32 0 -53 -12.5t-33.5 -31.5t-17.5 -43t-5 -46v-432q26 -9 58 -12t56 -3q68 0 102.5 40.5t34.5 104.5q0 25 -5 49.5t-20 45t-41.5 35t-69.5 17.5q-16 2 -25 7.5t-9 22.5v17q0 30 31 33q58 6 80 35t22 68q0 17 -5.5 35.5t-17.5 34t-32 25.5t-50 10z" />
    <glyph glyph-name="gamma" unicode="&#x3b3;" horiz-adv-x="502" 
d="M312 294l75 217q5 14 17 14h74q13 0 8 -16l-184 -504v-188q0 -11 -4.5 -14.5t-14.5 -3.5h-61q-11 0 -15 3.5t-4 14.5v188l-144 425q-4 9 -7.5 14t-19.5 4q-8 -1 -12.5 -0.5t-6.5 7.5l-8 49q-2 8 0.5 11.5t10.5 6.5q16 6 32.5 9t24.5 3q17 0 28 -3.5t18.5 -11t12.5 -19.5
t11 -30l58 -181l51 -166h3z" />
    <glyph glyph-name="delta" unicode="&#x3b4;" horiz-adv-x="563" 
d="M145 241q0 -35 7.5 -66t24 -54t42.5 -36.5t63 -13.5q35 0 60.5 13.5t42.5 36.5t25.5 53.5t8.5 63.5q0 29 -7 58t-22.5 54.5t-42 46.5t-65.5 35q-31 -5 -56 -24.5t-43 -47t-28 -59t-10 -60.5zM292 734q41 0 79.5 -6.5t78.5 -22.5q7 -3 9 -9t0 -12l-21 -53q-3 -7 -7.5 -7
t-9.5 2q-41 15 -69.5 20t-62.5 5q-38 0 -55.5 -17.5t-17.5 -40.5q0 -15 6 -26.5t19.5 -21.5t35 -20t51.5 -23q30 -12 63 -34t61 -54t46.5 -75.5t18.5 -98.5t-16 -101t-46 -79.5t-74.5 -52t-101.5 -18.5q-112 0 -172.5 65t-60.5 178q0 34 9 69.5t26 68.5t43 60t61 45v3
q-31 20 -48 45.5t-17 63.5q0 66 44.5 106.5t127.5 40.5z" />
    <glyph glyph-name="epsilon" unicode="&#x3b5;" horiz-adv-x="465" 
d="M253 536q41 0 83 -8.5t76 -27.5q15 -8 7 -23l-23 -48q-2 -6 -5.5 -8.5t-14.5 2.5q-24 10 -56 18.5t-64 8.5q-29 0 -48 -6.5t-30.5 -16t-16.5 -20.5t-5 -20q0 -39 30.5 -52.5t90.5 -18.5q19 -2 28 -7.5t9 -21.5v-20q0 -18 -11.5 -23t-25.5 -6q-61 -3 -97 -26t-35 -66
q0 -13 5 -26.5t18 -25t35.5 -18.5t56.5 -7q16 0 35.5 3.5t38 8.5t34.5 11t26 12q10 5 14 2.5t7 -8.5l21 -43q10 -15 -5 -23q-22 -12 -46.5 -20.5t-48.5 -13.5t-46 -7t-39 -2q-53 0 -91.5 11t-63.5 31t-37.5 47.5t-12.5 59.5q0 24 8 46t21.5 40.5t32 31.5t38.5 18v2
q-47 11 -67.5 42t-21.5 67q0 30 11.5 57.5t36 48t61.5 33t87 12.5z" />
    <glyph glyph-name="zeta" unicode="&#x3b6;" horiz-adv-x="447" 
d="M144 224q0 -22 6.5 -36.5t21 -26t37 -22t54.5 -22.5q58 -23 93.5 -40t54 -31.5t24.5 -29t6 -30.5q0 -32 -29.5 -72.5t-69.5 -78.5q-5 -5 -10 -7t-11 3l-37 29q-10 7 -1 19q4 7 14 18.5t19.5 23.5t17 23t7.5 17q0 15 -23.5 31t-79.5 37q-53 20 -89.5 38.5t-60 39.5t-34 46
t-10.5 57q0 78 77.5 187t245.5 243l-1 3h-273q-11 0 -14 4t-3 12v48q0 7 3 11.5t14 4.5h337q26 0 36.5 -11t10.5 -34v-16q0 -14 -4.5 -27t-19.5 -25q-90 -75 -149.5 -135.5t-95 -108.5t-50 -83.5t-14.5 -58.5z" />
    <glyph glyph-name="eta" unicode="&#x3b7;" horiz-adv-x="568" 
d="M503 16q0 -11 -4 -13.5t-14 -2.5h-62q-9 0 -13.5 2.5t-4.5 13.5v264q0 43 -7 74.5t-25 52.5t-48 31.5t-76 10.5q-11 0 -33 -1t-53 -6v-426q0 -11 -4 -13.5t-14 -2.5h-62q-9 0 -13.5 2.5t-4.5 13.5v428q0 74 70 84q10 1 26 2.5t33.5 3t34 2t28.5 0.5q64 0 110.5 -14
t76.5 -44.5t44.5 -78.5t14.5 -116v-267v0z" />
    <glyph glyph-name="theta" unicode="&#x3b8;" horiz-adv-x="563" 
d="M518 363q0 -374 -239 -374q-117 0 -175.5 90.5t-58.5 281.5q0 187 61.5 278.5t173.5 91.5q120 0 179 -92.5t59 -275.5zM423 415q-2 109 -37.5 171.5t-106.5 62.5q-34 0 -59.5 -17t-43 -48t-27 -74t-10.5 -95h284zM139 335q2 -134 34 -200.5t108 -66.5q37 0 63.5 18
t44 52.5t26 84t8.5 112.5h-284z" />
    <glyph glyph-name="iota" unicode="&#x3b9;" horiz-adv-x="279" 
d="M263 22q1 -9 -0.5 -12.5t-10.5 -8.5q-19 -8 -42 -10t-40 -2q-53 0 -74 24.5t-21 78.5v417q0 11 3 13.5t13 2.5h64q10 0 14 -2.5t4 -13.5v-390q0 -27 7.5 -35.5t25.5 -8.5q9 0 18.5 0.5t17.5 1.5t11 -1t4 -10l6 -44v0z" />
    <glyph glyph-name="kappa" unicode="&#x3ba;" horiz-adv-x="498" 
d="M167 291l188 226q3 4 6.5 6t12.5 2h87q5 0 6.5 -4.5t-1.5 -8.5l-163 -192l184 -308q2 -4 1 -8t-9 -4h-79q-11 0 -15 2.5t-8 8.5l-136 237l-79 -93v-139q0 -11 -4 -13.5t-14 -2.5h-62q-9 0 -13.5 2.5t-4.5 13.5v493q0 11 4.5 13.5t13.5 2.5h62q10 0 14 -2.5t4 -13.5v-216z
" />
    <glyph glyph-name="lambda" unicode="&#x3bb;" horiz-adv-x="563" 
d="M498 16q0 -11 -4.5 -13.5t-13.5 -2.5h-63q-10 0 -14 2.5t-4 13.5v344q-20 7 -47.5 11t-56.5 4q-72 0 -104.5 -33.5t-32.5 -109.5v-216q0 -11 -4 -13.5t-14 -2.5h-62q-9 0 -13.5 2.5t-4.5 13.5v217q0 50 13 92t40 72t69 47t101 17q32 0 62.5 -4t53.5 -11v40
q0 76 -46.5 117t-155.5 53q-11 1 -10 11l10 64q3 12 15 10q67 -6 120 -22.5t90 -48.5t56.5 -80.5t19.5 -117.5v-456v0z" />
    <glyph glyph-name="nu" unicode="&#x3bd;" horiz-adv-x="505" 
d="M333 42q-9 -26 -19.5 -36.5t-36.5 -10.5h-44q-20 0 -32.5 8t-23.5 38l-161 473q-3 11 9 11h76q8 0 10.5 -2.5t4.5 -7.5l85 -257l52 -171h6l50 169l82 259q2 5 4.5 7.5t10.5 2.5h74q12 0 9 -11z" />
    <glyph glyph-name="xi" unicode="&#x3be;" horiz-adv-x="423" 
d="M140 207q0 -27 13.5 -47t35 -34.5t49.5 -26t57 -21.5q28 -10 54 -21t46.5 -25t33 -32t12.5 -41q0 -32 -25 -69.5t-65 -75.5q-5 -5 -10 -7t-11 3l-40 31q-10 7 -1 19q4 7 12 16.5t15 19.5t12.5 19t5.5 15q0 11 -8.5 20.5t-22.5 18.5t-32.5 17t-39.5 15q-32 11 -65.5 26
t-61.5 38t-46 56.5t-18 83.5q0 25 7.5 53t22.5 53t37 45t51 29v4q-29 11 -48 27t-30.5 35.5t-16.5 41.5t-5 44q0 42 15 77.5t43.5 61.5t69.5 40.5t93 14.5q41 0 83 -8.5t76 -27.5q15 -8 7 -23l-21 -48q-2 -6 -5.5 -8.5t-14.5 2.5q-24 10 -57 18.5t-65 8.5q-26 0 -49 -6
t-40 -19.5t-26.5 -34t-9.5 -49.5q0 -34 12.5 -53.5t35.5 -30t56 -14t75 -5.5q38 -2 38 -35v-15q0 -18 -12 -25t-26 -8q-45 -2 -81 -9t-61.5 -23t-39.5 -43t-14 -68z" />
    <glyph glyph-name="omicron" unicode="&#x3bf;" horiz-adv-x="563" 
d="M518 265q0 -134 -60.5 -205t-178.5 -71q-115 0 -174.5 68.5t-59.5 204.5q0 66 18 117t50 86t75.5 53t93.5 18q116 0 176 -71.5t60 -199.5zM419 262q0 37 -5.5 72t-20.5 61.5t-41 42.5t-68 16q-36 0 -62.5 -15t-44 -40.5t-26 -60t-8.5 -73.5q0 -44 6.5 -79.5t22.5 -61
t42.5 -39.5t65.5 -14q40 0 66.5 16t42.5 42.5t23 61t7 71.5z" />
    <glyph glyph-name="pi" unicode="&#x3c0;" horiz-adv-x="578" 
d="M163 16q0 -11 -4 -13.5t-14 -2.5h-62q-9 0 -13.5 2.5t-4.5 13.5v466q0 12 9.5 27.5t34.5 15.5h359q26 0 35.5 -15.5t9.5 -27.5v-466q0 -11 -4 -13.5t-14 -2.5h-62q-9 0 -13.5 2.5t-4.5 13.5v424h-252v-424v0z" />
    <glyph glyph-name="rho" unicode="&#x3c1;" horiz-adv-x="576" 
d="M429 262q0 88 -33.5 139t-111.5 51q-33 0 -56 -11.5t-37 -31t-20.5 -45.5t-6.5 -55v-219q25 -10 54.5 -13t52.5 -3q76 0 117 45.5t41 142.5zM163 -186q0 -11 -4 -13.5t-14 -2.5h-62q-9 0 -13.5 2.5t-4.5 13.5v487q0 67 19.5 112.5t51.5 72.5t73 38.5t83 11.5
q112 0 175.5 -70t63.5 -204q0 -57 -15.5 -107t-46.5 -86.5t-76 -58t-104 -21.5q-27 0 -60.5 2.5t-64.5 13.5z" />
    <glyph glyph-name="sigma1" unicode="&#x3c2;" horiz-adv-x="471" 
d="M282 536q41 0 78 -8t71 -27q7 -4 9 -9t-3 -14l-23 -48q-3 -6 -6.5 -8.5t-14.5 2.5q-23 10 -50 17.5t-59 6.5q-37 -1 -63.5 -16.5t-43.5 -40t-25 -56t-8 -65.5q0 -32 5 -55.5t17 -41.5t32.5 -32.5t52.5 -28.5q52 -23 86 -39t53 -29t26.5 -26t7.5 -29q0 -32 -25 -69.5
t-65 -75.5q-5 -5 -10 -7t-11 3l-40 32q-10 7 -1 19q4 7 12 16.5t15 19.5t12.5 19t5.5 15q0 15 -22.5 27t-76.5 35q-52 22 -85.5 47t-53 54.5t-27 65.5t-7.5 80q0 59 16.5 108t47 84t74.5 54.5t99 19.5z" />
    <glyph glyph-name="sigma" unicode="&#x3c3;" horiz-adv-x="586" 
d="M420 257q0 42 -7.5 76t-24 58.5t-42.5 38t-64 13.5q-65 0 -102 -50.5t-37 -132.5q0 -89 32.5 -139.5t109.5 -50.5q34 0 59.5 14t42 39t25 59t8.5 75zM545 525q11 0 13.5 -4.5t2.5 -11.5v-52q0 -8 -2.5 -12t-13.5 -4h-80l-3 -5q27 -31 42 -75.5t15 -100.5q0 -129 -64 -200
t-176 -71q-118 0 -176 70t-58 198q0 66 18.5 116t51 84t76.5 51t94 17h260z" />
    <glyph glyph-name="tau" unicode="&#x3c4;" horiz-adv-x="412" 
d="M231 135q0 -33 15 -46.5t47 -13.5q13 0 37 2.5t39 4.5q10 2 13 -0.5t4 -8.5l10 -52q1 -6 0.5 -10.5t-9.5 -7.5q-31 -10 -63.5 -12t-47.5 -2q-79 0 -111 34t-32 106v312h-102q-11 0 -13.5 4.5t-2.5 11.5v50q0 8 2.5 13t13.5 5h330q11 0 13.5 -4.5t2.5 -11.5v-52
q0 -8 -2.5 -12t-13.5 -4h-130v-306z" />
    <glyph glyph-name="upsilon" unicode="&#x3c5;" horiz-adv-x="579" 
d="M416 509q0 11 4.5 13.5t13.5 2.5h62q10 0 14 -2.5t4 -13.5v-285q0 -118 -58.5 -176.5t-162.5 -58.5q-119 0 -173.5 57t-54.5 164v299q0 11 4.5 13.5t13.5 2.5h62q10 0 14 -2.5t4 -13.5v-309q0 -60 29.5 -94.5t92.5 -34.5q37 0 62 10.5t40.5 28t22 41t6.5 50.5v308v0z" />
    <glyph glyph-name="phi" unicode="&#x3c6;" horiz-adv-x="704" 
d="M299 455q0 38 17 53.5t42 19.5q42 6 74 6q62 0 105 -19.5t70 -54.5t39.5 -82.5t12.5 -104.5q0 -60 -17.5 -110.5t-50.5 -87.5t-81.5 -59.5t-110.5 -26.5v-175q0 -11 -4 -13.5t-14 -2.5h-64q-9 0 -13.5 2.5t-4.5 13.5v175q-66 4 -114 26t-79 58t-46 84.5t-15 105.5
q0 55 15.5 98.5t39.5 76t53.5 53.5t57.5 30q7 2 11.5 1.5t8.5 -8.5l25 -49q4 -8 0.5 -13t-11.5 -10q-50 -27 -77 -72t-27 -109q0 -35 8 -67t26.5 -57.5t48.5 -42.5t75 -22v383zM563 268q0 94 -33.5 137.5t-109.5 43.5h-9.5t-11.5 -1v-376q46 4 77.5 22t51 44.5t27.5 60
t8 69.5z" />
    <glyph glyph-name="chi" unicode="&#x3c7;" horiz-adv-x="482" 
d="M297 282l174 -266q3 -5 2.5 -10.5t-9.5 -5.5h-82q-13 0 -17 3.5t-8 9.5l-118 191l-121 -190q-5 -7 -10 -10.5t-16 -3.5h-73q-16 0 -7 17l173 260l-151 231q-3 5 -2 11t9 6h76q11 0 16.5 -3.5t9.5 -9.5l100 -163l103 163q4 6 9 9.5t15 3.5h73q10 0 10.5 -5.5t-1.5 -8.5z
" />
    <glyph glyph-name="psi" unicode="&#x3c8;" horiz-adv-x="724" 
d="M659 251q0 -120 -61.5 -186t-186.5 -75v-176q0 -11 -4 -13.5t-14 -2.5h-62q-9 0 -13.5 2.5t-4.5 13.5v176q-69 7 -116.5 28t-77 54.5t-42 79.5t-12.5 104v253q0 11 4.5 13.5t13.5 2.5h63q10 0 14 -2.5t4 -13.5v-252q0 -33 7 -64t24.5 -55.5t46 -40.5t71.5 -20v432
q0 11 4.5 13.5t13.5 2.5h62q10 0 14 -2.5t4 -13.5v-433q42 4 70.5 18t46 36.5t25 52.5t7.5 65v261q0 11 4.5 13.5t13.5 2.5h63q10 0 14 -2.5t4 -13.5v-258v0z" />
    <glyph glyph-name="omega" unicode="&#x3c9;" horiz-adv-x="794" 
d="M446 174q0 -46 25.5 -73.5t70.5 -27.5q52 0 80.5 49t28.5 141q0 63 -24.5 112t-70.5 69q-8 3 -11.5 7.5t1.5 14.5l21 50q2 5 5.5 9t11.5 2q76 -22 120.5 -92t44.5 -181q0 -69 -17 -119.5t-44.5 -83t-63.5 -48t-74 -15.5q-57 0 -92.5 18.5t-58.5 61.5h-4
q-22 -38 -59.5 -59t-91.5 -21q-43 0 -79.5 14.5t-63 46t-41.5 81.5t-15 121q0 52 11.5 98t33 82t52 60.5t68.5 35.5q8 2 11.5 -2t5.5 -9l18 -48q4 -11 1 -15t-11 -7q-46 -20 -69 -70.5t-23 -123.5q0 -83 27.5 -131t81.5 -48q45 0 70.5 27.5t25.5 73.5v164q0 11 4.5 14
t13.5 3h62q10 0 14 -3t4 -14v-164z" />
    <glyph glyph-name="iotadieresis" unicode="&#x3ca;" horiz-adv-x="279" 
d="M281 670q0 -23 -18 -41t-41 -18q-24 0 -42.5 18t-18.5 41q0 11 5 21.5t13.5 19t19 13.5t22.5 5q23 0 41.5 -18t18.5 -41zM97 670q0 -23 -18.5 -41t-41.5 -18q-12 0 -22.5 5t-19 13t-13.5 19t-5 22t5 21.5t13.5 19t19 13.5t22.5 5q23 0 41.5 -18t18.5 -41zM263 22
q1 -9 -0.5 -12.5t-10.5 -8.5q-19 -8 -42 -10t-40 -2q-53 0 -74 24.5t-21 78.5v417q0 11 3 13.5t13 2.5h64q10 0 14 -2.5t4 -13.5v-390q0 -27 7.5 -35.5t25.5 -8.5q9 0 18.5 0.5t17.5 1.5t11 -1t4 -10z" />
    <glyph glyph-name="upsilondieresis" unicode="&#x3cb;" horiz-adv-x="579" 
d="M445 670q0 -23 -18 -41t-41 -18q-24 0 -42.5 18t-18.5 41q0 11 5 21.5t13.5 19t19 13.5t22.5 5q23 0 41.5 -18t18.5 -41zM261 670q0 -23 -18.5 -41t-41.5 -18q-12 0 -22.5 5t-19 13t-13.5 19t-5 22t5 21.5t13.5 19t19 13.5t22.5 5q23 0 41.5 -18t18.5 -41zM416 509
q0 11 4.5 13.5t13.5 2.5h62q10 0 14 -2.5t4 -13.5v-285q0 -118 -58.5 -176.5t-162.5 -58.5q-119 0 -173.5 57t-54.5 164v299q0 11 4.5 13.5t13.5 2.5h62q10 0 14 -2.5t4 -13.5v-309q0 -60 29.5 -94.5t92.5 -34.5q37 0 62 10.5t40.5 28t22 41t6.5 50.5v308z" />
    <glyph glyph-name="omicrontonos" unicode="&#x3cc;" horiz-adv-x="563" 
d="M518 265q0 -134 -60.5 -205t-178.5 -71q-115 0 -174.5 68.5t-59.5 204.5q0 66 18 117t50 86t75.5 53t93.5 18q116 0 176 -71.5t60 -199.5zM419 262q0 37 -5.5 72t-20.5 61.5t-41 42.5t-68 16q-36 0 -62.5 -15t-44 -40.5t-26 -60t-8.5 -73.5q0 -44 6.5 -79.5t22.5 -61
t42.5 -39.5t65.5 -14q40 0 66.5 16t42.5 42.5t23 61t7 71.5zM260 592q-8 3 -9.5 6t3.5 13l66 158q2 5 6.5 8.5t14.5 1.5l77 -21q8 -2 9.5 -6.5t-2.5 -9.5l-110 -153q-6 -8 -10.5 -9.5t-12.5 0.5z" />
    <glyph glyph-name="upsilontonos" unicode="&#x3cd;" horiz-adv-x="579" 
d="M416 509q0 11 4.5 13.5t13.5 2.5h62q10 0 14 -2.5t4 -13.5v-285q0 -118 -58.5 -176.5t-162.5 -58.5q-119 0 -173.5 57t-54.5 164v299q0 11 4.5 13.5t13.5 2.5h62q10 0 14 -2.5t4 -13.5v-309q0 -60 29.5 -94.5t92.5 -34.5q37 0 62 10.5t40.5 28t22 41t6.5 50.5v308z
M261 592q-8 3 -9.5 6t3.5 13l66 158q2 5 6.5 8.5t14.5 1.5l77 -21q8 -2 9.5 -6.5t-2.5 -9.5l-110 -153q-6 -8 -10.5 -9.5t-12.5 0.5z" />
    <glyph glyph-name="omegatonos" unicode="&#x3ce;" horiz-adv-x="794" 
d="M446 174q0 -46 25.5 -73.5t70.5 -27.5q52 0 80.5 49t28.5 141q0 63 -24.5 112t-70.5 69q-8 3 -11.5 7.5t1.5 14.5l21 50q2 5 5.5 9t11.5 2q76 -22 120.5 -92t44.5 -181q0 -69 -17 -119.5t-44.5 -83t-63.5 -48t-74 -15.5q-57 0 -92.5 18.5t-58.5 61.5h-4
q-22 -38 -59.5 -59t-91.5 -21q-43 0 -79.5 14.5t-63 46t-41.5 81.5t-15 121q0 52 11.5 98t33 82t52 60.5t68.5 35.5q8 2 11.5 -2t5.5 -9l18 -48q4 -11 1 -15t-11 -7q-46 -20 -69 -70.5t-23 -123.5q0 -83 27.5 -131t81.5 -48q45 0 70.5 27.5t25.5 73.5v164q0 11 4.5 14
t13.5 3h62q10 0 14 -3t4 -14v-164zM364 592q-8 3 -9.5 6t3.5 13l66 158q2 5 6.5 8.5t14.5 1.5l77 -21q8 -2 9.5 -6.5t-2.5 -9.5l-110 -153q-6 -8 -10.5 -9.5t-12.5 0.5z" />
    <glyph glyph-name="afii10023" unicode="&#x401;" horiz-adv-x="588" 
d="M548 23q0 -11 -3.5 -17t-17.5 -6h-278q-51 0 -84.5 14.5t-53.5 38.5t-28 56t-8 67v348q0 35 9.5 67t30.5 56.5t54 39t80 14.5h274q14 0 17.5 -6t3.5 -17v-48q0 -13 -3.5 -17.5t-17.5 -4.5h-274q-38 0 -54.5 -16.5t-16.5 -52.5v-123h312q13 0 16.5 -5t3.5 -18v-42
q0 -11 -3.5 -17t-16.5 -6h-312v-166q0 -30 16.5 -49t54.5 -19h278q14 0 17.5 -5t3.5 -18v-48zM480 813q0 -23 -18 -41t-41 -18q-24 0 -42.5 18t-18.5 41q0 11 5 21.5t13.5 19t19 13.5t22.5 5q23 0 41.5 -18t18.5 -41zM296 813q0 -23 -18.5 -41t-41.5 -18q-12 0 -22.5 5
t-19 13t-13.5 19t-5 22t5 21.5t13.5 19t19 13.5t22.5 5q23 0 41.5 -18t18.5 -41z" />
    <glyph glyph-name="afii10051" unicode="&#x402;" horiz-adv-x="786" 
d="M741 230q0 -26 -5 -62.5t-21.5 -76t-47 -79t-81.5 -71.5q-7 -3 -11.5 -3.5t-9.5 7.5l-35 52q-5 11 5 17q51 31 77.5 86t26.5 129q0 39 -12 68.5t-33.5 49t-50.5 29.5t-63 10q-36 0 -76.5 -7.5t-77.5 -20.5v-342q0 -11 -3.5 -13.5t-12.5 -2.5h-71q-9 0 -13.5 2.5
t-4.5 13.5v592h-190q-11 0 -13.5 4t-2.5 13v57q0 9 2.5 13.5t13.5 4.5h553q11 0 13.5 -4t2.5 -13v-57q0 -9 -2.5 -13t-13.5 -4l-258 -1v-161q40 11 87.5 18t83.5 7q115 0 179.5 -64t64.5 -178z" />
    <glyph glyph-name="afii10052" unicode="&#x403;" horiz-adv-x="548" 
d="M178 21q0 -14 -5 -17.5t-18 -3.5h-57q-11 0 -17 3.5t-6 17.5v503q0 35 8.5 67t28.5 56.5t53.5 39t83.5 14.5h267q14 0 17.5 -6t3.5 -17v-47q0 -13 -3.5 -18t-17.5 -5h-267q-38 0 -54.5 -16t-16.5 -52v-519zM252 779q-5 6 -4.5 10t8.5 10l144 106q5 4 10 5t12 -7l46 -64
q6 -6 4.5 -10.5t-6.5 -6.5l-170 -76q-10 -4 -15 -2.5t-10 6.5z" />
    <glyph glyph-name="afii10053" unicode="&#x404;" horiz-adv-x="606" 
d="M375 86q44 0 82.5 10t71.5 24q13 5 18.5 0.5t7.5 -9.5l21 -48q7 -14 4.5 -18.5t-9.5 -9.5q-48 -29 -105.5 -37.5t-108.5 -8.5q-143 0 -222.5 87.5t-79.5 269.5q0 82 22.5 149t63 115t98 74t126.5 26q42 0 88.5 -7.5t97.5 -33.5q6 -3 8.5 -8.5t-3.5 -16.5l-25 -52
q-4 -7 -7.5 -9.5t-12.5 1.5q-31 13 -67 21t-75 8q-46 0 -82 -16t-61.5 -43.5t-40.5 -64.5t-19 -79h282q11 0 13.5 -4t2.5 -14v-53q0 -9 -2.5 -13.5t-13.5 -4.5h-287q1 -50 12 -93t36 -74.5t65.5 -49.5t100.5 -18z" />
    </font>
</defs>
</svg>
