<?xml version="1.0" standalone="no"?>
<!DOCTYPE svg PUBLIC "-//W3C//DTD SVG 1.1//EN" "http://www.w3.org/Graphics/SVG/1.1/DTD/svg11.dtd" >
<svg xmlns="http://www.w3.org/2000/svg" xmlns:xlink="http://www.w3.org/1999/xlink" version="1.1">
<metadata>
Created by FontForge 20201107 at Thu Apr 21 12:14:26 2022
 By Jimmy Wärting
Copyright 2011 The Maven Pro Project Authors (http://www.vissol.co.uk/mavenpro/), with Reserved Font Name "Maven Pro".
</metadata>
<defs>
<font id="MavenPro-Regular" horiz-adv-x="569" >
  <font-face 
    font-family="Maven Pro"
    font-weight="400"
    font-stretch="normal"
    units-per-em="1000"
    panose-1="0 0 0 0 0 0 0 0 0 0"
    ascent="800"
    descent="-200"
    x-height="499"
    cap-height="667"
    bbox="-41 -217 1206 1030"
    underline-thickness="50"
    underline-position="-125"
    unicode-range="U+000D-FB02"
  />
<missing-glyph horiz-adv-x="500" 
 />
    <glyph glyph-name="fi" unicode="fi" horiz-adv-x="594" 
d="M126 0v433h-86v66h86v27q0 55 12.5 89.5t32.5 54t42 28t42 10t32 1.5q14 0 26 -1.5t22 -4.5v-64q-7 2 -16 3t-20 1q-17 0 -35 -2t-33 -12.5t-24 -34t-9 -67.5v-28h137v-66h-137v-433h-72zM438 0v499h72v-499h-72zM434 588v79h80v-79h-80z" />
    <glyph glyph-name="fl" unicode="fl" horiz-adv-x="587" 
d="M126 0v433h-86v66h86v27q0 55 12.5 89.5t32.5 54t42 28t42 10t32 1.5q14 0 26 -1.5t22 -4.5v-64q-7 2 -16 3t-20 1q-17 0 -35 -2t-33 -12.5t-24 -34t-9 -67.5v-28h137v-66h-137v-433h-72zM507 0h-72v689h72v-689z" />
    <glyph glyph-name=".notdef" horiz-adv-x="500" 
 />
    <glyph glyph-name="A" unicode="A" horiz-adv-x="643" 
d="M20 0l266 667h72l265 -667h-77l-231 600l15 2l-232 -602h-78zM137 208l31 69h327l5 -69h-363z" />
    <glyph glyph-name="Aacute" unicode="&#xc1;" horiz-adv-x="643" 
d="M20 0l266 667h72l265 -667h-77l-231 600l15 2l-232 -602h-78zM137 208l31 69h327l5 -69h-363zM305 732l57 115h74l-83 -115h-48z" />
    <glyph glyph-name="Abreve" unicode="&#x102;" horiz-adv-x="643" 
d="M20 0l266 667h72l265 -667h-77l-231 600l15 2l-232 -602h-78zM137 208l31 69h327l5 -69h-363zM323 695q-32 0 -59.5 13t-47 38.5t-28.5 62.5h52q11 -30 32 -46t51 -16t50.5 16t32.5 46h52q-7 -37 -26.5 -62.5t-47.5 -38.5t-61 -13z" />
    <glyph glyph-name="uni1EAE" unicode="&#x1eae;" horiz-adv-x="643" 
d="M20 0l266 667h72l265 -667h-77l-231 600l15 2l-232 -602h-78zM137 208l31 69h327l5 -69h-363zM323 713q-32 0 -59.5 13t-47 38.5t-28.5 62.5h52q11 -30 32 -46t51 -16t50.5 16t32.5 46h52q-7 -37 -26.5 -62.5t-47.5 -38.5t-61 -13zM291 838l57 115h74l-83 -115h-48z" />
    <glyph glyph-name="uni1EB6" unicode="&#x1eb6;" horiz-adv-x="643" 
d="M20 0l266 667h72l265 -667h-77l-231 600l15 2l-232 -602h-78zM137 208l31 69h327l5 -69h-363zM283 -129v79h79v-79h-79zM323 695q-32 0 -59.5 13t-47 38.5t-28.5 62.5h52q11 -30 32 -46t51 -16t50.5 16t32.5 46h52q-7 -37 -26.5 -62.5t-47.5 -38.5t-61 -13z" />
    <glyph glyph-name="uni1EB0" unicode="&#x1eb0;" horiz-adv-x="643" 
d="M20 0l266 667h72l265 -667h-77l-231 600l15 2l-232 -602h-78zM137 208l31 69h327l5 -69h-363zM323 713q-32 0 -59.5 13t-47 38.5t-28.5 62.5h52q11 -30 32 -46t51 -16t50.5 16t32.5 46h52q-7 -37 -26.5 -62.5t-47.5 -38.5t-61 -13zM301 832l-83 115h73l57 -115h-47z" />
    <glyph glyph-name="uni1EB2" unicode="&#x1eb2;" horiz-adv-x="643" 
d="M20 0l266 667h72l265 -667h-77l-231 600l15 2l-232 -602h-78zM137 208l31 69h327l5 -69h-363zM314 713q-32 0 -59.5 13t-47 38.5t-28.5 62.5h52q11 -30 32 -46t51 -16t50.5 16t32.5 46h52q-7 -37 -26.5 -62.5t-47.5 -38.5t-61 -13zM289 832v52q21 1 29.5 9t8.5 15
q0 13 -12.5 19.5t-35.5 6.5q-7 0 -14 -0.5t-13 -1.5v43q8 2 15.5 2.5t15.5 0.5q21 0 42 -6t35.5 -20.5t14.5 -41.5q0 -19 -12.5 -34t-40.5 -20v-24h-33z" />
    <glyph glyph-name="uni1EB4" unicode="&#x1eb4;" horiz-adv-x="643" 
d="M20 0l266 667h72l265 -667h-77l-231 600l15 2l-232 -602h-78zM137 208l31 69h327l5 -69h-363zM323 713q-32 0 -59.5 13t-47 38.5t-28.5 62.5h52q11 -30 32 -46t51 -16t50.5 16t32.5 46h52q-7 -37 -26.5 -62.5t-47.5 -38.5t-61 -13zM228 862h-46q-9 36 1 61t30.5 38
t41.5 13q24 0 43 -9.5t34.5 -22t29.5 -22t29 -9.5q14 0 21.5 12.5t2.5 35.5h52q6 -29 -3 -52.5t-30 -37.5t-51 -14q-22 0 -40 9.5t-33.5 21.5t-29.5 21.5t-26 9.5q-13 0 -22.5 -13t-3.5 -42z" />
    <glyph glyph-name="uni01CD" unicode="&#x1cd;" horiz-adv-x="643" 
d="M20 0l266 667h72l265 -667h-77l-231 600l15 2l-232 -602h-78zM137 208l31 69h327l5 -69h-363zM303 704l-81 120h56l45 -70l45 70h56l-80 -120h-41z" />
    <glyph glyph-name="Acircumflex" unicode="&#xc2;" horiz-adv-x="643" 
d="M20 0l266 667h72l265 -667h-77l-231 600l15 2l-232 -602h-78zM137 208l31 69h327l5 -69h-363zM212 719l81 120h61l80 -120h-46l-65 70l-65 -70h-46z" />
    <glyph glyph-name="uni1EA4" unicode="&#x1ea4;" horiz-adv-x="643" 
d="M20 0l266 667h72l265 -667h-77l-231 600l15 2l-232 -602h-78zM137 208l31 69h327l5 -69h-363zM215 732l81 120h61l80 -120h-46l-65 70l-65 -70h-46zM409 804l57 115h74l-83 -115h-48z" />
    <glyph glyph-name="uni1EAC" unicode="&#x1eac;" horiz-adv-x="643" 
d="M20 0l266 667h72l265 -667h-77l-231 600l15 2l-232 -602h-78zM137 208l31 69h327l5 -69h-363zM283 -129v79h79v-79h-79zM212 719l81 120h61l80 -120h-46l-65 70l-65 -70h-46z" />
    <glyph glyph-name="uni1EA6" unicode="&#x1ea6;" horiz-adv-x="643" 
d="M20 0l266 667h72l265 -667h-77l-231 600l15 2l-232 -602h-78zM137 208l31 69h327l5 -69h-363zM212 732l81 120h61l80 -120h-46l-65 70l-65 -70h-46zM167 798l-83 115h74l57 -115h-48z" />
    <glyph glyph-name="uni1EA8" unicode="&#x1ea8;" horiz-adv-x="643" 
d="M20 0l266 667h72l265 -667h-77l-231 600l15 2l-232 -602h-78zM137 208l31 69h327l5 -69h-363zM206 727l81 120h61l80 -120h-46l-65 70l-65 -70h-46zM433 779v52q21 1 29.5 9t8.5 15q0 13 -12.5 19.5t-35.5 6.5q-7 0 -14 -0.5t-13 -1.5v43q8 2 15.5 2.5t15.5 0.5
q21 0 42 -6t35.5 -20.5t14.5 -41.5q0 -19 -12.5 -34t-40.5 -20v-24h-33z" />
    <glyph glyph-name="uni1EAA" unicode="&#x1eaa;" horiz-adv-x="643" 
d="M20 0l266 667h72l265 -667h-77l-231 600l15 2l-232 -602h-78zM137 208l31 69h327l5 -69h-363zM212 712l81 120h61l80 -120h-46l-65 70l-65 -70h-46zM227 867h-46q-9 36 1 61t30.5 38t41.5 13q24 0 43 -9.5t34.5 -22t29.5 -22t29 -9.5q14 0 21.5 12.5t2.5 35.5h52
q6 -29 -3 -52.5t-30 -37.5t-51 -14q-22 0 -40 9.5t-33.5 21.5t-29.5 21.5t-26 9.5q-13 0 -22.5 -13t-3.5 -42z" />
    <glyph glyph-name="uni0200" unicode="&#x200;" horiz-adv-x="643" 
d="M20 0l266 667h72l265 -667h-77l-231 600l15 2l-232 -602h-78zM137 208l31 69h327l5 -69h-363zM244 732l-83 115h74l57 -115h-48zM367 732l-83 115h74l57 -115h-48z" />
    <glyph glyph-name="Adieresis" unicode="&#xc4;" horiz-adv-x="643" 
d="M20 0l266 667h72l265 -667h-77l-231 600l15 2l-232 -602h-78zM137 208l31 69h327l5 -69h-363zM357 726v79h79v-79h-79zM209 726v79h79v-79h-79z" />
    <glyph glyph-name="uni0226" unicode="&#x226;" horiz-adv-x="643" 
d="M20 0l266 667h72l265 -667h-77l-231 600l15 2l-232 -602h-78zM137 208l31 69h327l5 -69h-363zM283 704v79h79v-79h-79z" />
    <glyph glyph-name="uni1EA0" unicode="&#x1ea0;" horiz-adv-x="643" 
d="M20 0l266 667h72l265 -667h-77l-231 600l15 2l-232 -602h-78zM137 208l31 69h327l5 -69h-363zM283 -129v79h79v-79h-79z" />
    <glyph glyph-name="Agrave" unicode="&#xc0;" horiz-adv-x="643" 
d="M20 0l266 667h72l265 -667h-77l-231 600l15 2l-232 -602h-78zM137 208l31 69h327l5 -69h-363zM304 721l-83 115h74l57 -115h-48z" />
    <glyph glyph-name="uni1EA2" unicode="&#x1ea2;" horiz-adv-x="643" 
d="M20 0l266 667h72l265 -667h-77l-231 600l15 2l-232 -602h-78zM137 208l31 69h327l5 -69h-363zM298 702v52q21 1 29.5 9t8.5 15q0 13 -12.5 19.5t-35.5 6.5q-7 0 -14 -0.5t-13 -1.5v43q8 2 15.5 2.5t15.5 0.5q21 0 42 -6t35.5 -20.5t14.5 -41.5q0 -19 -12.5 -34t-40.5 -20
v-24h-33z" />
    <glyph glyph-name="uni0202" unicode="&#x202;" horiz-adv-x="643" 
d="M323 789q33 0 61 -13t47.5 -38t26.5 -63h-52q-12 30 -32.5 46t-50.5 16t-51 -16t-32 -46h-52q9 38 28.5 63t47 38t59.5 13zM20 0l266 667h72l265 -667h-77l-231 600l15 2l-232 -602h-78zM137 208l31 69h327l5 -69h-363z" />
    <glyph glyph-name="Amacron" unicode="&#x100;" horiz-adv-x="643" 
d="M20 0l266 667h72l265 -667h-77l-231 600l15 2l-232 -602h-78zM137 208l31 69h327l5 -69h-363zM206 716v53h234v-53h-234z" />
    <glyph glyph-name="Aogonek" unicode="&#x104;" horiz-adv-x="643" 
d="M20 0l266 667h72l265 -667h-77l-231 600l15 2l-232 -602h-78zM137 208l31 69h327l5 -69h-363zM558 -173q-40 0 -64 21.5t-24 61.5q0 25 18.5 52t54.5 42l78 -4q-40 -19 -66 -41t-26 -44q0 -18 9 -26t25 -8q20 0 34.5 10.5t20.5 16.5v-63q-12 -7 -26.5 -12.5t-33.5 -5.5z
" />
    <glyph glyph-name="Aring" unicode="&#xc5;" horiz-adv-x="643" 
d="M20 0l266 667h72l265 -667h-77l-231 600l15 2l-232 -602h-78zM137 208l31 69h327l5 -69h-363zM323 640q-55 0 -78 22.5t-23 69.5t23 69.5t78 22.5q54 0 77.5 -22.5t23.5 -69.5t-23.5 -69.5t-77.5 -22.5zM323 683q32 0 43 11.5t11 37.5t-11 37t-43 11t-43.5 -11t-11.5 -37
t11.5 -37.5t43.5 -11.5z" />
    <glyph glyph-name="Aringacute" unicode="&#x1fa;" horiz-adv-x="643" 
d="M20 0l266 667h72l265 -667h-77l-231 600l15 2l-232 -602h-78zM137 208l31 69h327l5 -69h-363zM323 640q-55 0 -78 22.5t-23 69.5t23 69.5t78 22.5q54 0 77.5 -22.5t23.5 -69.5t-23.5 -69.5t-77.5 -22.5zM323 683q32 0 43 11.5t11 37.5t-11 37t-43 11t-43.5 -11t-11.5 -37
t11.5 -37.5t43.5 -11.5zM305 869l57 115h74l-83 -115h-48z" />
    <glyph glyph-name="Atilde" unicode="&#xc3;" horiz-adv-x="643" 
d="M20 0l266 667h72l265 -667h-77l-231 600l15 2l-232 -602h-78zM137 208l31 69h327l5 -69h-363zM233 727h-46q-9 36 1 61t30.5 38t41.5 13q24 0 43 -9.5t34.5 -22t29.5 -22t29 -9.5q14 0 21.5 12.5t2.5 35.5h52q6 -29 -3 -52.5t-30 -37.5t-51 -14q-22 0 -40 9.5t-33.5 21.5
t-29.5 21.5t-26 9.5q-13 0 -22.5 -13t-3.5 -42z" />
    <glyph glyph-name="AE" unicode="&#xc6;" horiz-adv-x="957" 
d="M473 651h71l-441 -651h-83l456 667h406v-69h-337v-230h296v-70h-296v-229h337v-69h-409v651zM493 209h-322l58 72h268z" />
    <glyph glyph-name="AEacute" unicode="&#x1fc;" horiz-adv-x="957" 
d="M473 651h71l-441 -651h-83l456 667h406v-69h-337v-230h296v-70h-296v-229h337v-69h-409v651zM493 209h-322l58 72h268zM658 732l57 115h74l-83 -115h-48z" />
    <glyph glyph-name="B" unicode="B" horiz-adv-x="628" 
d="M85 0v667h221q87 0 135 -24.5t67.5 -65t19.5 -89.5q0 -43 -13 -67t-31.5 -39.5t-35.5 -31.5l-8 13q26 -9 56 -29.5t51 -55.5t21 -89q0 -67 -29 -108.5t-83.5 -61t-129.5 -19.5h-241zM157 67h175q43 0 80.5 9t60.5 36.5t23 80.5q0 40 -15 63.5t-39.5 35t-54 15t-58.5 3.5
h-172v-243zM157 378h165q33 0 63.5 6.5t50.5 29t20 69.5q0 68 -38 91.5t-105 23.5h-156v-220z" />
    <glyph glyph-name="C" unicode="C" horiz-adv-x="622" 
d="M364 -8q-154 0 -231.5 86t-77.5 256t77.5 256t231.5 86q53 0 104 -13t99 -36v-69q-46 25 -95 37.5t-100 12.5q-84 0 -137.5 -29t-79 -89.5t-25.5 -155.5t25.5 -155.5t79 -89.5t137.5 -29q51 0 100 12t95 37v-69q-32 -15 -65.5 -26t-68 -16.5t-69.5 -5.5z" />
    <glyph glyph-name="Cacute" unicode="&#x106;" horiz-adv-x="622" 
d="M364 -8q-154 0 -231.5 86t-77.5 256t77.5 256t231.5 86q53 0 104 -13t99 -36v-69q-46 25 -95 37.5t-100 12.5q-84 0 -137.5 -29t-79 -89.5t-25.5 -155.5t25.5 -155.5t79 -89.5t137.5 -29q51 0 100 12t95 37v-69q-32 -15 -65.5 -26t-68 -16.5t-69.5 -5.5zM328 732l57 115
h74l-83 -115h-48z" />
    <glyph glyph-name="Ccaron" unicode="&#x10c;" horiz-adv-x="622" 
d="M364 -8q-154 0 -231.5 86t-77.5 256t77.5 256t231.5 86q53 0 104 -13t99 -36v-69q-46 25 -95 37.5t-100 12.5q-84 0 -137.5 -29t-79 -89.5t-25.5 -155.5t25.5 -155.5t79 -89.5t137.5 -29q51 0 100 12t95 37v-69q-32 -15 -65.5 -26t-68 -16.5t-69.5 -5.5zM326 704l-81 120
h56l45 -70l45 70h56l-80 -120h-41z" />
    <glyph glyph-name="Ccedilla" unicode="&#xc7;" horiz-adv-x="622" 
d="M364 -8q-154 0 -231.5 86t-77.5 256t77.5 256t231.5 86q53 0 104 -13t99 -36v-69q-46 25 -95 37.5t-100 12.5q-84 0 -137.5 -29t-79 -89.5t-25.5 -155.5t25.5 -155.5t79 -89.5t137.5 -29q51 0 100 12t95 37v-69q-32 -15 -65.5 -26t-68 -16.5t-69.5 -5.5zM244 -110l82 115
h57l-63 -115h-76z" />
    <glyph glyph-name="Ccircumflex" unicode="&#x108;" horiz-adv-x="622" 
d="M364 -8q-154 0 -231.5 86t-77.5 256t77.5 256t231.5 86q53 0 104 -13t99 -36v-69q-46 25 -95 37.5t-100 12.5q-84 0 -137.5 -29t-79 -89.5t-25.5 -155.5t25.5 -155.5t79 -89.5t137.5 -29q51 0 100 12t95 37v-69q-32 -15 -65.5 -26t-68 -16.5t-69.5 -5.5zM235 719l81 120
h61l80 -120h-46l-65 70l-65 -70h-46z" />
    <glyph glyph-name="Cdotaccent" unicode="&#x10a;" horiz-adv-x="622" 
d="M364 -8q-154 0 -231.5 86t-77.5 256t77.5 256t231.5 86q53 0 104 -13t99 -36v-69q-46 25 -95 37.5t-100 12.5q-84 0 -137.5 -29t-79 -89.5t-25.5 -155.5t25.5 -155.5t79 -89.5t137.5 -29q51 0 100 12t95 37v-69q-32 -15 -65.5 -26t-68 -16.5t-69.5 -5.5zM306 704v79h79
v-79h-79z" />
    <glyph glyph-name="D" unicode="D" horiz-adv-x="667" 
d="M85 0v667h209q156 0 234.5 -83.5t78.5 -249.5t-78.5 -250t-234.5 -84h-209zM157 68h132q128 0 186 64t58 202t-58 202t-186 64h-132v-532z" />
    <glyph glyph-name="uni01C4" unicode="&#x1c4;" horiz-adv-x="1276" 
d="M85 0v667h209q156 0 234.5 -83.5t78.5 -249.5t-78.5 -250t-234.5 -84h-209zM157 68h132q128 0 186 64t58 202t-58 202t-186 64h-132v-532zM731 0v63l414 569l14 -33h-418v68h465v-61l-405 -565l-9 27h414v-68h-475zM952 704l-81 120h56l45 -70l45 70h56l-80 -120h-41z
" />
    <glyph glyph-name="Eth" unicode="&#xd0;" horiz-adv-x="667" 
d="M85 0v667h209q156 0 234.5 -83.5t78.5 -249.5t-78.5 -250t-234.5 -84h-209zM157 68h132q128 0 186 64t58 202t-58 202t-186 64h-132v-532zM7 307v53h244v-53h-244z" />
    <glyph glyph-name="Dcaron" unicode="&#x10e;" horiz-adv-x="667" 
d="M85 0v667h209q156 0 234.5 -83.5t78.5 -249.5t-78.5 -250t-234.5 -84h-209zM157 68h132q128 0 186 64t58 202t-58 202t-186 64h-132v-532zM253 704l-81 120h56l45 -70l45 70h56l-80 -120h-41z" />
    <glyph glyph-name="Dcroat" unicode="&#x110;" horiz-adv-x="667" 
d="M85 0v667h209q156 0 234.5 -83.5t78.5 -249.5t-78.5 -250t-234.5 -84h-209zM157 68h132q128 0 186 64t58 202t-58 202t-186 64h-132v-532zM7 307v53h244v-53h-244z" />
    <glyph glyph-name="uni01F2" unicode="&#x1f2;" horiz-adv-x="1122" 
d="M85 0v667h209q156 0 234.5 -83.5t78.5 -249.5t-78.5 -250t-234.5 -84h-209zM157 68h132q128 0 186 64t58 202t-58 202t-186 64h-132v-532zM712 0v65l296 394l15 -22h-304v62h358v-63l-296 -391v19h296v-64h-365z" />
    <glyph glyph-name="uni01C5" unicode="&#x1c5;" horiz-adv-x="1122" 
d="M85 0v667h209q156 0 234.5 -83.5t78.5 -249.5t-78.5 -250t-234.5 -84h-209zM157 68h132q128 0 186 64t58 202t-58 202t-186 64h-132v-532zM712 0v65l296 394l15 -22h-304v62h358v-63l-296 -391v19h296v-64h-365zM875 564l-81 120h56l45 -70l45 70h56l-80 -120h-41z" />
    <glyph glyph-name="E" unicode="E" horiz-adv-x="581" 
d="M85 0v667h421v-68h-349v-230h307v-70h-307v-231h349v-68h-421z" />
    <glyph glyph-name="Eacute" unicode="&#xc9;" horiz-adv-x="581" 
d="M85 0v667h421v-68h-349v-230h307v-70h-307v-231h349v-68h-421zM289 732l57 115h74l-83 -115h-48z" />
    <glyph glyph-name="Ebreve" unicode="&#x114;" horiz-adv-x="581" 
d="M85 0v667h421v-68h-349v-230h307v-70h-307v-231h349v-68h-421zM307 695q-32 0 -59.5 13t-47 38.5t-28.5 62.5h52q11 -30 32 -46t51 -16t50.5 16t32.5 46h52q-7 -37 -26.5 -62.5t-47.5 -38.5t-61 -13z" />
    <glyph glyph-name="Ecaron" unicode="&#x11a;" horiz-adv-x="581" 
d="M85 0v667h421v-68h-349v-230h307v-70h-307v-231h349v-68h-421zM287 704l-81 120h56l45 -70l45 70h56l-80 -120h-41z" />
    <glyph glyph-name="uni1E1C" unicode="&#x1e1c;" horiz-adv-x="581" 
d="M85 0v667h421v-68h-349v-230h307v-70h-307v-231h349v-68h-421zM211 -110l82 115h57l-63 -115h-76zM307 695q-32 0 -59.5 13t-47 38.5t-28.5 62.5h52q11 -30 32 -46t51 -16t50.5 16t32.5 46h52q-7 -37 -26.5 -62.5t-47.5 -38.5t-61 -13z" />
    <glyph glyph-name="Ecircumflex" unicode="&#xca;" horiz-adv-x="581" 
d="M85 0v667h421v-68h-349v-230h307v-70h-307v-231h349v-68h-421zM196 719l81 120h61l80 -120h-46l-65 70l-65 -70h-46z" />
    <glyph glyph-name="uni1EBE" unicode="&#x1ebe;" horiz-adv-x="581" 
d="M85 0v667h421v-68h-349v-230h307v-70h-307v-231h349v-68h-421zM199 732l81 120h61l80 -120h-46l-65 70l-65 -70h-46zM393 804l57 115h74l-83 -115h-48z" />
    <glyph glyph-name="uni1EC6" unicode="&#x1ec6;" horiz-adv-x="581" 
d="M85 0v667h421v-68h-349v-230h307v-70h-307v-231h349v-68h-421zM241 -129v79h79v-79h-79zM196 719l81 120h61l80 -120h-46l-65 70l-65 -70h-46z" />
    <glyph glyph-name="uni1EC0" unicode="&#x1ec0;" horiz-adv-x="581" 
d="M85 0v667h421v-68h-349v-230h307v-70h-307v-231h349v-68h-421zM196 732l81 120h61l80 -120h-46l-65 70l-65 -70h-46zM151 798l-83 115h74l57 -115h-48z" />
    <glyph glyph-name="uni1EC2" unicode="&#x1ec2;" horiz-adv-x="581" 
d="M85 0v667h421v-68h-349v-230h307v-70h-307v-231h349v-68h-421zM190 727l81 120h61l80 -120h-46l-65 70l-65 -70h-46zM417 779v52q21 1 29.5 9t8.5 15q0 13 -12.5 19.5t-35.5 6.5q-7 0 -14 -0.5t-13 -1.5v43q8 2 15.5 2.5t15.5 0.5q21 0 42 -6t35.5 -20.5t14.5 -41.5
q0 -19 -12.5 -34t-40.5 -20v-24h-33z" />
    <glyph glyph-name="uni1EC4" unicode="&#x1ec4;" horiz-adv-x="581" 
d="M85 0v667h421v-68h-349v-230h307v-70h-307v-231h349v-68h-421zM196 712l81 120h61l80 -120h-46l-65 70l-65 -70h-46zM211 867h-46q-9 36 1 61t30.5 38t41.5 13q24 0 43 -9.5t34.5 -22t29.5 -22t29 -9.5q14 0 21.5 12.5t2.5 35.5h52q6 -29 -3 -52.5t-30 -37.5t-51 -14
q-22 0 -40 9.5t-33.5 21.5t-29.5 21.5t-26 9.5q-13 0 -22.5 -13t-3.5 -42z" />
    <glyph glyph-name="uni0204" unicode="&#x204;" horiz-adv-x="581" 
d="M85 0v667h421v-68h-349v-230h307v-70h-307v-231h349v-68h-421zM228 732l-83 115h74l57 -115h-48zM351 732l-83 115h74l57 -115h-48z" />
    <glyph glyph-name="Edieresis" unicode="&#xcb;" horiz-adv-x="581" 
d="M85 0v667h421v-68h-349v-230h307v-70h-307v-231h349v-68h-421zM341 726v79h79v-79h-79zM193 726v79h79v-79h-79z" />
    <glyph glyph-name="Edotaccent" unicode="&#x116;" horiz-adv-x="581" 
d="M85 0v667h421v-68h-349v-230h307v-70h-307v-231h349v-68h-421zM267 704v79h79v-79h-79z" />
    <glyph glyph-name="uni1EB8" unicode="&#x1eb8;" horiz-adv-x="581" 
d="M85 0v667h421v-68h-349v-230h307v-70h-307v-231h349v-68h-421zM241 -129v79h79v-79h-79z" />
    <glyph glyph-name="Egrave" unicode="&#xc8;" horiz-adv-x="581" 
d="M85 0v667h421v-68h-349v-230h307v-70h-307v-231h349v-68h-421zM288 721l-83 115h74l57 -115h-48z" />
    <glyph glyph-name="uni1EBA" unicode="&#x1eba;" horiz-adv-x="581" 
d="M85 0v667h421v-68h-349v-230h307v-70h-307v-231h349v-68h-421zM282 702v52q21 1 29.5 9t8.5 15q0 13 -12.5 19.5t-35.5 6.5q-7 0 -14 -0.5t-13 -1.5v43q8 2 15.5 2.5t15.5 0.5q21 0 42 -6t35.5 -20.5t14.5 -41.5q0 -19 -12.5 -34t-40.5 -20v-24h-33z" />
    <glyph glyph-name="uni0206" unicode="&#x206;" horiz-adv-x="581" 
d="M307 789q33 0 61 -13t47.5 -38t26.5 -63h-52q-12 30 -32.5 46t-50.5 16t-51 -16t-32 -46h-52q9 38 28.5 63t47 38t59.5 13zM85 0v667h421v-68h-349v-230h307v-70h-307v-231h349v-68h-421z" />
    <glyph glyph-name="Emacron" unicode="&#x112;" horiz-adv-x="581" 
d="M85 0v667h421v-68h-349v-230h307v-70h-307v-231h349v-68h-421zM190 716v53h234v-53h-234z" />
    <glyph glyph-name="uni1E16" unicode="&#x1e16;" horiz-adv-x="581" 
d="M85 0v667h421v-68h-349v-230h307v-70h-307v-231h349v-68h-421zM190 716v53h234v-53h-234zM289 834l57 115h74l-83 -115h-48z" />
    <glyph glyph-name="uni1E14" unicode="&#x1e14;" horiz-adv-x="581" 
d="M85 0v667h421v-68h-349v-230h307v-70h-307v-231h349v-68h-421zM190 716v53h234v-53h-234zM288 823l-83 115h74l57 -115h-48z" />
    <glyph glyph-name="Eogonek" unicode="&#x118;" horiz-adv-x="581" 
d="M85 0v667h421v-68h-349v-230h307v-70h-307v-231h349v-68h-421zM442 -173q-40 0 -64 21.5t-24 61.5q0 25 18.5 52t54.5 42l78 -4q-40 -19 -66 -41t-26 -44q0 -18 9 -26t25 -8q20 0 34.5 10.5t20.5 16.5v-63q-12 -7 -26.5 -12.5t-33.5 -5.5z" />
    <glyph glyph-name="uni1EBC" unicode="&#x1ebc;" horiz-adv-x="581" 
d="M85 0v667h421v-68h-349v-230h307v-70h-307v-231h349v-68h-421zM217 727h-46q-9 36 1 61t30.5 38t41.5 13q24 0 43 -9.5t34.5 -22t29.5 -22t29 -9.5q14 0 21.5 12.5t2.5 35.5h52q6 -29 -3 -52.5t-30 -37.5t-51 -14q-22 0 -40 9.5t-33.5 21.5t-29.5 21.5t-26 9.5
q-13 0 -22.5 -13t-3.5 -42z" />
    <glyph glyph-name="F" unicode="F" horiz-adv-x="539" 
d="M85 0v667h409v-68h-337v-230h296v-70h-296v-299h-72z" />
    <glyph glyph-name="uni1E1E" unicode="&#x1e1e;" horiz-adv-x="539" 
d="M85 0v667h409v-68h-337v-230h296v-70h-296v-299h-72zM242 704v79h79v-79h-79z" />
    <glyph glyph-name="G" unicode="G" horiz-adv-x="687" 
d="M369 -10q-102 0 -171 38.5t-103.5 115t-34.5 190.5t34.5 190t103.5 114t171 38q55 0 108 -11t102 -34v-75q-47 21 -98 36.5t-104 15.5q-84 0 -138.5 -29.5t-80.5 -90t-26 -154.5t26 -155t80.5 -90.5t138.5 -29.5q40 0 78 6t75 18v190h-161v70h233v-301q-55 -26 -113 -39
t-120 -13z" />
    <glyph glyph-name="uni01F4" unicode="&#x1f4;" horiz-adv-x="687" 
d="M369 -10q-102 0 -171 38.5t-103.5 115t-34.5 190.5t34.5 190t103.5 114t171 38q55 0 108 -11t102 -34v-75q-47 21 -98 36.5t-104 15.5q-84 0 -138.5 -29.5t-80.5 -90t-26 -154.5t26 -155t80.5 -90.5t138.5 -29.5q40 0 78 6t75 18v190h-161v70h233v-301q-55 -26 -113 -39
t-120 -13zM346 732l57 115h74l-83 -115h-48z" />
    <glyph glyph-name="Gbreve" unicode="&#x11e;" horiz-adv-x="687" 
d="M369 -10q-102 0 -171 38.5t-103.5 115t-34.5 190.5t34.5 190t103.5 114t171 38q55 0 108 -11t102 -34v-75q-47 21 -98 36.5t-104 15.5q-84 0 -138.5 -29.5t-80.5 -90t-26 -154.5t26 -155t80.5 -90.5t138.5 -29.5q40 0 78 6t75 18v190h-161v70h233v-301q-55 -26 -113 -39
t-120 -13zM364 695q-32 0 -59.5 13t-47 38.5t-28.5 62.5h52q11 -30 32 -46t51 -16t50.5 16t32.5 46h52q-7 -37 -26.5 -62.5t-47.5 -38.5t-61 -13z" />
    <glyph glyph-name="Gcaron" unicode="&#x1e6;" horiz-adv-x="687" 
d="M369 -10q-102 0 -171 38.5t-103.5 115t-34.5 190.5t34.5 190t103.5 114t171 38q55 0 108 -11t102 -34v-75q-47 21 -98 36.5t-104 15.5q-84 0 -138.5 -29.5t-80.5 -90t-26 -154.5t26 -155t80.5 -90.5t138.5 -29.5q40 0 78 6t75 18v190h-161v70h233v-301q-55 -26 -113 -39
t-120 -13zM344 704l-81 120h56l45 -70l45 70h56l-80 -120h-41z" />
    <glyph glyph-name="Gcircumflex" unicode="&#x11c;" horiz-adv-x="687" 
d="M369 -10q-102 0 -171 38.5t-103.5 115t-34.5 190.5t34.5 190t103.5 114t171 38q55 0 108 -11t102 -34v-75q-47 21 -98 36.5t-104 15.5q-84 0 -138.5 -29.5t-80.5 -90t-26 -154.5t26 -155t80.5 -90.5t138.5 -29.5q40 0 78 6t75 18v190h-161v70h233v-301q-55 -26 -113 -39
t-120 -13zM253 719l81 120h61l80 -120h-46l-65 70l-65 -70h-46z" />
    <glyph glyph-name="uni0122" unicode="&#x122;" horiz-adv-x="687" 
d="M369 -10q-102 0 -171 38.5t-103.5 115t-34.5 190.5t34.5 190t103.5 114t171 38q55 0 108 -11t102 -34v-75q-47 21 -98 36.5t-104 15.5q-84 0 -138.5 -29.5t-80.5 -90t-26 -154.5t26 -155t80.5 -90.5t138.5 -29.5q40 0 78 6t75 18v190h-161v70h233v-301q-55 -26 -113 -39
t-120 -13zM281 -193v54q19 8 27 23.5t10.5 34t2.5 32.5h60q0 -48 -16 -78t-39 -45.5t-45 -20.5z" />
    <glyph glyph-name="Gdotaccent" unicode="&#x120;" horiz-adv-x="687" 
d="M369 -10q-102 0 -171 38.5t-103.5 115t-34.5 190.5t34.5 190t103.5 114t171 38q55 0 108 -11t102 -34v-75q-47 21 -98 36.5t-104 15.5q-84 0 -138.5 -29.5t-80.5 -90t-26 -154.5t26 -155t80.5 -90.5t138.5 -29.5q40 0 78 6t75 18v190h-161v70h233v-301q-55 -26 -113 -39
t-120 -13zM324 704v79h79v-79h-79z" />
    <glyph glyph-name="uni1E20" unicode="&#x1e20;" horiz-adv-x="687" 
d="M369 -10q-102 0 -171 38.5t-103.5 115t-34.5 190.5t34.5 190t103.5 114t171 38q55 0 108 -11t102 -34v-75q-47 21 -98 36.5t-104 15.5q-84 0 -138.5 -29.5t-80.5 -90t-26 -154.5t26 -155t80.5 -90.5t138.5 -29.5q40 0 78 6t75 18v190h-161v70h233v-301q-55 -26 -113 -39
t-120 -13zM247 716v53h234v-53h-234z" />
    <glyph glyph-name="H" unicode="H" horiz-adv-x="669" 
d="M85 0v667h72v-300h355v300h72v-667h-72v299h-355v-299h-72z" />
    <glyph glyph-name="Hbar" unicode="&#x126;" horiz-adv-x="669" 
d="M35 478v53h599v-53h-599zM85 0v667h72v-300h355v300h72v-667h-72v299h-355v-299h-72z" />
    <glyph glyph-name="uni1E2A" unicode="&#x1e2a;" horiz-adv-x="669" 
d="M85 0v667h72v-300h355v300h72v-667h-72v299h-355v-299h-72zM335 -141q-32 0 -59.5 13t-47 38.5t-28.5 62.5h52q11 -30 32 -46t51 -16t50.5 16t32.5 46h52q-7 -37 -26.5 -62.5t-47.5 -38.5t-61 -13z" />
    <glyph glyph-name="Hcircumflex" unicode="&#x124;" horiz-adv-x="669" 
d="M85 0v667h72v-300h355v300h72v-667h-72v299h-355v-299h-72zM224 719l81 120h61l80 -120h-46l-65 70l-65 -70h-46z" />
    <glyph glyph-name="I" unicode="I" horiz-adv-x="242" 
d="M85 0v667h72v-667h-72z" />
    <glyph glyph-name="IJ" unicode="&#x132;" horiz-adv-x="695" 
d="M85 0v667h72v-667h-72zM419 -8q-39 0 -72 9.5t-60 25.5v75q25 -17 55.5 -28.5t67.5 -11.5q68 0 98 33.5t30 109.5v462h72v-468q0 -64 -17.5 -104.5t-45.5 -63t-61.5 -31t-66.5 -8.5z" />
    <glyph glyph-name="Iacute" unicode="&#xcd;" horiz-adv-x="242" 
d="M85 0v667h72v-667h-72zM103 732l57 115h74l-83 -115h-48z" />
    <glyph glyph-name="Ibreve" unicode="&#x12c;" horiz-adv-x="242" 
d="M85 0v667h72v-667h-72zM121 695q-32 0 -59.5 13t-47 38.5t-28.5 62.5h52q11 -30 32 -46t51 -16t50.5 16t32.5 46h52q-7 -37 -26.5 -62.5t-47.5 -38.5t-61 -13z" />
    <glyph glyph-name="uni01CF" unicode="&#x1cf;" horiz-adv-x="242" 
d="M85 0v667h72v-667h-72zM101 704l-81 120h56l45 -70l45 70h56l-80 -120h-41z" />
    <glyph glyph-name="Icircumflex" unicode="&#xce;" horiz-adv-x="242" 
d="M85 0v667h72v-667h-72zM10 719l81 120h61l80 -120h-46l-65 70l-65 -70h-46z" />
    <glyph glyph-name="uni0208" unicode="&#x208;" horiz-adv-x="242" 
d="M85 0v667h72v-667h-72zM42 732l-83 115h74l57 -115h-48zM165 732l-83 115h74l57 -115h-48z" />
    <glyph glyph-name="Idieresis" unicode="&#xcf;" horiz-adv-x="242" 
d="M85 0v667h72v-667h-72zM155 726v79h79v-79h-79zM7 726v79h79v-79h-79z" />
    <glyph glyph-name="uni1E2E" unicode="&#x1e2e;" horiz-adv-x="242" 
d="M85 0v667h72v-667h-72zM155 726v79h79v-79h-79zM7 726v79h79v-79h-79zM103 900l57 115h74l-83 -115h-48z" />
    <glyph glyph-name="Idotaccent" unicode="&#x130;" horiz-adv-x="242" 
d="M85 0v667h72v-667h-72zM81 704v79h79v-79h-79z" />
    <glyph glyph-name="uni1ECA" unicode="&#x1eca;" horiz-adv-x="242" 
d="M85 0v667h72v-667h-72zM81 -129v79h79v-79h-79z" />
    <glyph glyph-name="Igrave" unicode="&#xcc;" horiz-adv-x="242" 
d="M85 0v667h72v-667h-72zM102 721l-83 115h74l57 -115h-48z" />
    <glyph glyph-name="uni1EC8" unicode="&#x1ec8;" horiz-adv-x="242" 
d="M85 0v667h72v-667h-72zM96 702v52q21 1 29.5 9t8.5 15q0 13 -12.5 19.5t-35.5 6.5q-7 0 -14 -0.5t-13 -1.5v43q8 2 15.5 2.5t15.5 0.5q21 0 42 -6t35.5 -20.5t14.5 -41.5q0 -19 -12.5 -34t-40.5 -20v-24h-33z" />
    <glyph glyph-name="uni020A" unicode="&#x20a;" horiz-adv-x="242" 
d="M121 789q33 0 61 -13t47.5 -38t26.5 -63h-52q-12 30 -32.5 46t-50.5 16t-51 -16t-32 -46h-52q9 38 28.5 63t47 38t59.5 13zM85 0v667h72v-667h-72z" />
    <glyph glyph-name="Imacron" unicode="&#x12a;" horiz-adv-x="242" 
d="M85 0v667h72v-667h-72zM4 716v53h234v-53h-234z" />
    <glyph glyph-name="Iogonek" unicode="&#x12e;" horiz-adv-x="242" 
d="M94 -173q-40 0 -64 21.5t-24 61.5q0 25 24 55.5t60 45.5l67 -11q-40 -19 -66 -41t-26 -44q0 -18 9 -26t25 -8q20 0 34.5 10.5t20.5 16.5v-63q-12 -7 -26.5 -12.5t-33.5 -5.5zM85 0v667h72v-667h-72z" />
    <glyph glyph-name="Itilde" unicode="&#x128;" horiz-adv-x="242" 
d="M85 0v667h72v-667h-72zM31 727h-46q-9 36 1 61t30.5 38t41.5 13q24 0 43 -9.5t34.5 -22t29.5 -22t29 -9.5q14 0 21.5 12.5t2.5 35.5h52q6 -29 -3 -52.5t-30 -37.5t-51 -14q-22 0 -40 9.5t-33.5 21.5t-29.5 21.5t-26 9.5q-13 0 -22.5 -13t-3.5 -42z" />
    <glyph glyph-name="J" unicode="J" horiz-adv-x="453" 
d="M177 -8q-39 0 -72 9.5t-60 25.5v75q25 -17 55.5 -28.5t67.5 -11.5q68 0 98 33.5t30 109.5v462h72v-468q0 -64 -17.5 -104.5t-45.5 -63t-61.5 -31t-66.5 -8.5z" />
    <glyph glyph-name="Jcircumflex" unicode="&#x134;" horiz-adv-x="453" 
d="M177 -8q-39 0 -72 9.5t-60 25.5v75q25 -17 55.5 -28.5t67.5 -11.5q68 0 98 33.5t30 109.5v462h72v-468q0 -64 -17.5 -104.5t-45.5 -63t-61.5 -31t-66.5 -8.5zM226 719l81 120h61l80 -120h-46l-65 70l-65 -70h-46z" />
    <glyph glyph-name="K" unicode="K" horiz-adv-x="613" 
d="M149 213v94l324 360h92zM85 0v667h72v-667h-72zM261 376l327 -376h-100l-281 327z" />
    <glyph glyph-name="uni0136" unicode="&#x136;" horiz-adv-x="613" 
d="M149 213v94l324 360h92zM85 0v667h72v-667h-72zM261 376l327 -376h-100l-281 327zM267 -193v54q19 8 27 23.5t10.5 34t2.5 32.5h60q0 -48 -16 -78t-39 -45.5t-45 -20.5z" />
    <glyph glyph-name="L" unicode="L" horiz-adv-x="523" 
d="M85 0v667h72v-597h341v-70h-413z" />
    <glyph glyph-name="uni01C7" unicode="&#x1c7;" horiz-adv-x="976" 
d="M85 0v667h72v-597h341v-70h-413zM700 -8q-39 0 -72 9.5t-60 25.5v75q25 -17 55.5 -28.5t67.5 -11.5q68 0 98 33.5t30 109.5v462h72v-468q0 -64 -17.5 -104.5t-45.5 -63t-61.5 -31t-66.5 -8.5z" />
    <glyph glyph-name="Lacute" unicode="&#x139;" horiz-adv-x="523" 
d="M85 0v667h72v-597h341v-70h-413zM107 732l57 115h74l-83 -115h-48z" />
    <glyph glyph-name="Lcaron" unicode="&#x13d;" horiz-adv-x="523" 
d="M85 0v667h72v-597h341v-70h-413zM378 527v54q19 8 27 23.5t10.5 34t2.5 32.5h60q0 -48 -16 -78t-39 -45.5t-45 -20.5z" />
    <glyph glyph-name="uni013B" unicode="&#x13b;" horiz-adv-x="523" 
d="M85 0v667h72v-597h341v-70h-413zM219 -193v54q19 8 27 23.5t10.5 34t2.5 32.5h60q0 -48 -16 -78t-39 -45.5t-45 -20.5z" />
    <glyph glyph-name="Ldot" unicode="&#x13f;" horiz-adv-x="523" 
d="M85 0v667h72v-597h341v-70h-413zM274 291v80h79v-80h-79z" />
    <glyph glyph-name="uni1E36" unicode="&#x1e36;" horiz-adv-x="523" 
d="M85 0v667h72v-597h341v-70h-413zM229 -129v79h79v-79h-79z" />
    <glyph glyph-name="uni01C8" unicode="&#x1c8;" horiz-adv-x="791" 
d="M85 0v667h72v-597h341v-70h-413zM533 -193v67q44 1 65.5 12.5t29 34t7.5 54.5v524h72v-528q0 -55 -19 -91.5t-57.5 -54.5t-97.5 -18zM631 588v79h80v-79h-80z" />
    <glyph glyph-name="uni1E3A" unicode="&#x1e3a;" horiz-adv-x="523" 
d="M85 0v667h72v-597h341v-70h-413zM152 -119v53h234v-53h-234z" />
    <glyph glyph-name="Lslash" unicode="&#x141;" horiz-adv-x="521" 
d="M13 251v64l280 189v-64zM85 0v667h72v-597h341v-70h-413z" />
    <glyph glyph-name="M" unicode="M" horiz-adv-x="785" 
d="M85 0v667h78l247 -379l-49 -11l261 390h78v-667h-72v595h32l-275 -386l-254 378l26 37v-624h-72z" />
    <glyph glyph-name="uni1E42" unicode="&#x1e42;" horiz-adv-x="785" 
d="M85 0v667h78l247 -379l-49 -11l261 390h78v-667h-72v595h32l-275 -386l-254 378l26 37v-624h-72zM353 -129v79h79v-79h-79z" />
    <glyph glyph-name="N" unicode="N" horiz-adv-x="722" 
d="M85 0v667h82l416 -587l-18 -28v615h72v-667h-81l-432 609l33 31v-640h-72z" />
    <glyph glyph-name="uni01CA" unicode="&#x1ca;" horiz-adv-x="1175" 
d="M85 0v667h82l416 -587l-18 -28v615h72v-667h-81l-432 609l33 31v-640h-72zM899 -8q-39 0 -72 9.5t-60 25.5v75q25 -17 55.5 -28.5t67.5 -11.5q68 0 98 33.5t30 109.5v462h72v-468q0 -64 -17.5 -104.5t-45.5 -63t-61.5 -31t-66.5 -8.5z" />
    <glyph glyph-name="Nacute" unicode="&#x143;" horiz-adv-x="722" 
d="M85 0v667h82l416 -587l-18 -28v615h72v-667h-81l-432 609l33 31v-640h-72zM344 732l57 115h74l-83 -115h-48z" />
    <glyph glyph-name="Ncaron" unicode="&#x147;" horiz-adv-x="722" 
d="M85 0v667h82l416 -587l-18 -28v615h72v-667h-81l-432 609l33 31v-640h-72zM342 704l-81 120h56l45 -70l45 70h56l-80 -120h-41z" />
    <glyph glyph-name="uni0145" unicode="&#x145;" horiz-adv-x="722" 
d="M85 0v667h82l416 -587l-18 -28v615h72v-667h-81l-432 609l33 31v-640h-72zM312 -193v54q19 8 27 23.5t10.5 34t2.5 32.5h60q0 -48 -16 -78t-39 -45.5t-45 -20.5z" />
    <glyph glyph-name="uni1E46" unicode="&#x1e46;" horiz-adv-x="722" 
d="M85 0v667h82l416 -587l-18 -28v615h72v-667h-81l-432 609l33 31v-640h-72zM322 -129v79h79v-79h-79z" />
    <glyph glyph-name="Eng" unicode="&#x14a;" horiz-adv-x="728" 
d="M464 -172v67q42 1 64 11.5t30 31t8 50.5v41l19 -64l-426 597v-562h-72v667h82l397 -562v562h72v-676q0 -55 -19 -91t-57.5 -54t-97.5 -18z" />
    <glyph glyph-name="uni019D" unicode="&#x19d;" horiz-adv-x="749" 
d="M184 -29q0 -55 -19 -91.5t-57.5 -54.5t-97.5 -18v67q44 1 65.5 12.5t29 34t7.5 54.5v692h82l416 -587l-18 -28v615h72v-667h-81l-432 609l33 31v-669z" />
    <glyph glyph-name="uni01CB" unicode="&#x1cb;" horiz-adv-x="990" 
d="M85 0v667h82l416 -587l-18 -28v615h72v-667h-81l-432 609l33 31v-640h-72zM732 -193v67q44 1 65.5 12.5t29 34t7.5 54.5v524h72v-528q0 -55 -19 -91.5t-57.5 -54.5t-97.5 -18zM830 588v79h80v-79h-80z" />
    <glyph glyph-name="uni1E48" unicode="&#x1e48;" horiz-adv-x="722" 
d="M85 0v667h82l416 -587l-18 -28v615h72v-667h-81l-432 609l33 31v-640h-72zM245 -119v53h234v-53h-234z" />
    <glyph glyph-name="Ntilde" unicode="&#xd1;" horiz-adv-x="722" 
d="M85 0v667h82l416 -587l-18 -28v615h72v-667h-81l-432 609l33 31v-640h-72zM272 727h-46q-9 36 1 61t30.5 38t41.5 13q24 0 43 -9.5t34.5 -22t29.5 -22t29 -9.5q14 0 21.5 12.5t2.5 35.5h52q6 -29 -3 -52.5t-30 -37.5t-51 -14q-22 0 -40 9.5t-33.5 21.5t-29.5 21.5
t-26 9.5q-13 0 -22.5 -13t-3.5 -42z" />
    <glyph glyph-name="O" unicode="O" horiz-adv-x="719" 
d="M359 -10q-99 0 -165.5 38.5t-100 114.5t-33.5 190q0 170 75.5 256.5t223.5 86.5q100 0 166.5 -38.5t100 -114.5t33.5 -190q0 -170 -75.5 -256.5t-224.5 -86.5zM359 58q79 0 129 29t73.5 90t23.5 156t-23.5 155.5t-73.5 90t-129 29.5q-78 0 -128 -29.5t-73.5 -90
t-23.5 -155.5t23.5 -156t73.5 -90t128 -29z" />
    <glyph glyph-name="Oacute" unicode="&#xd3;" horiz-adv-x="719" 
d="M359 -10q-99 0 -165.5 38.5t-100 114.5t-33.5 190q0 170 75.5 256.5t223.5 86.5q100 0 166.5 -38.5t100 -114.5t33.5 -190q0 -170 -75.5 -256.5t-224.5 -86.5zM359 58q79 0 129 29t73.5 90t23.5 156t-23.5 155.5t-73.5 90t-129 29.5q-78 0 -128 -29.5t-73.5 -90
t-23.5 -155.5t23.5 -156t73.5 -90t128 -29zM349 732l57 115h74l-83 -115h-48z" />
    <glyph glyph-name="Obreve" unicode="&#x14e;" horiz-adv-x="719" 
d="M359 -10q-99 0 -165.5 38.5t-100 114.5t-33.5 190q0 170 75.5 256.5t223.5 86.5q100 0 166.5 -38.5t100 -114.5t33.5 -190q0 -170 -75.5 -256.5t-224.5 -86.5zM359 58q79 0 129 29t73.5 90t23.5 156t-23.5 155.5t-73.5 90t-129 29.5q-78 0 -128 -29.5t-73.5 -90
t-23.5 -155.5t23.5 -156t73.5 -90t128 -29zM367 695q-32 0 -59.5 13t-47 38.5t-28.5 62.5h52q11 -30 32 -46t51 -16t50.5 16t32.5 46h52q-7 -37 -26.5 -62.5t-47.5 -38.5t-61 -13z" />
    <glyph glyph-name="uni01D1" unicode="&#x1d1;" horiz-adv-x="719" 
d="M359 -10q-99 0 -165.5 38.5t-100 114.5t-33.5 190q0 170 75.5 256.5t223.5 86.5q100 0 166.5 -38.5t100 -114.5t33.5 -190q0 -170 -75.5 -256.5t-224.5 -86.5zM359 58q79 0 129 29t73.5 90t23.5 156t-23.5 155.5t-73.5 90t-129 29.5q-78 0 -128 -29.5t-73.5 -90
t-23.5 -155.5t23.5 -156t73.5 -90t128 -29zM347 704l-81 120h56l45 -70l45 70h56l-80 -120h-41z" />
    <glyph glyph-name="Ocircumflex" unicode="&#xd4;" horiz-adv-x="719" 
d="M359 -10q-99 0 -165.5 38.5t-100 114.5t-33.5 190q0 170 75.5 256.5t223.5 86.5q100 0 166.5 -38.5t100 -114.5t33.5 -190q0 -170 -75.5 -256.5t-224.5 -86.5zM359 58q79 0 129 29t73.5 90t23.5 156t-23.5 155.5t-73.5 90t-129 29.5q-78 0 -128 -29.5t-73.5 -90
t-23.5 -155.5t23.5 -156t73.5 -90t128 -29zM256 719l81 120h61l80 -120h-46l-65 70l-65 -70h-46z" />
    <glyph glyph-name="uni1ED0" unicode="&#x1ed0;" horiz-adv-x="719" 
d="M359 -10q-99 0 -165.5 38.5t-100 114.5t-33.5 190q0 170 75.5 256.5t223.5 86.5q100 0 166.5 -38.5t100 -114.5t33.5 -190q0 -170 -75.5 -256.5t-224.5 -86.5zM359 58q79 0 129 29t73.5 90t23.5 156t-23.5 155.5t-73.5 90t-129 29.5q-78 0 -128 -29.5t-73.5 -90
t-23.5 -155.5t23.5 -156t73.5 -90t128 -29zM259 732l81 120h61l80 -120h-46l-65 70l-65 -70h-46zM453 804l57 115h74l-83 -115h-48z" />
    <glyph glyph-name="uni1ED8" unicode="&#x1ed8;" horiz-adv-x="719" 
d="M359 -10q-99 0 -165.5 38.5t-100 114.5t-33.5 190q0 170 75.5 256.5t223.5 86.5q100 0 166.5 -38.5t100 -114.5t33.5 -190q0 -170 -75.5 -256.5t-224.5 -86.5zM359 58q79 0 129 29t73.5 90t23.5 156t-23.5 155.5t-73.5 90t-129 29.5q-78 0 -128 -29.5t-73.5 -90
t-23.5 -155.5t23.5 -156t73.5 -90t128 -29zM327 -129v79h79v-79h-79zM256 719l81 120h61l80 -120h-46l-65 70l-65 -70h-46z" />
    <glyph glyph-name="uni1ED2" unicode="&#x1ed2;" horiz-adv-x="719" 
d="M359 -10q-99 0 -165.5 38.5t-100 114.5t-33.5 190q0 170 75.5 256.5t223.5 86.5q100 0 166.5 -38.5t100 -114.5t33.5 -190q0 -170 -75.5 -256.5t-224.5 -86.5zM359 58q79 0 129 29t73.5 90t23.5 156t-23.5 155.5t-73.5 90t-129 29.5q-78 0 -128 -29.5t-73.5 -90
t-23.5 -155.5t23.5 -156t73.5 -90t128 -29zM256 732l81 120h61l80 -120h-46l-65 70l-65 -70h-46zM211 798l-83 115h74l57 -115h-48z" />
    <glyph glyph-name="uni1ED4" unicode="&#x1ed4;" horiz-adv-x="719" 
d="M359 -10q-99 0 -165.5 38.5t-100 114.5t-33.5 190q0 170 75.5 256.5t223.5 86.5q100 0 166.5 -38.5t100 -114.5t33.5 -190q0 -170 -75.5 -256.5t-224.5 -86.5zM359 58q79 0 129 29t73.5 90t23.5 156t-23.5 155.5t-73.5 90t-129 29.5q-78 0 -128 -29.5t-73.5 -90
t-23.5 -155.5t23.5 -156t73.5 -90t128 -29zM250 727l81 120h61l80 -120h-46l-65 70l-65 -70h-46zM477 779v52q21 1 29.5 9t8.5 15q0 13 -12.5 19.5t-35.5 6.5q-7 0 -14 -0.5t-13 -1.5v43q8 2 15.5 2.5t15.5 0.5q21 0 42 -6t35.5 -20.5t14.5 -41.5q0 -19 -12.5 -34t-40.5 -20
v-24h-33z" />
    <glyph glyph-name="uni1ED6" unicode="&#x1ed6;" horiz-adv-x="719" 
d="M359 -10q-99 0 -165.5 38.5t-100 114.5t-33.5 190q0 170 75.5 256.5t223.5 86.5q100 0 166.5 -38.5t100 -114.5t33.5 -190q0 -170 -75.5 -256.5t-224.5 -86.5zM359 58q79 0 129 29t73.5 90t23.5 156t-23.5 155.5t-73.5 90t-129 29.5q-78 0 -128 -29.5t-73.5 -90
t-23.5 -155.5t23.5 -156t73.5 -90t128 -29zM256 712l81 120h61l80 -120h-46l-65 70l-65 -70h-46zM271 867h-46q-9 36 1 61t30.5 38t41.5 13q24 0 43 -9.5t34.5 -22t29.5 -22t29 -9.5q14 0 21.5 12.5t2.5 35.5h52q6 -29 -3 -52.5t-30 -37.5t-51 -14q-22 0 -40 9.5t-33.5 21.5
t-29.5 21.5t-26 9.5q-13 0 -22.5 -13t-3.5 -42z" />
    <glyph glyph-name="uni020C" unicode="&#x20c;" horiz-adv-x="719" 
d="M359 -10q-99 0 -165.5 38.5t-100 114.5t-33.5 190q0 170 75.5 256.5t223.5 86.5q100 0 166.5 -38.5t100 -114.5t33.5 -190q0 -170 -75.5 -256.5t-224.5 -86.5zM359 58q79 0 129 29t73.5 90t23.5 156t-23.5 155.5t-73.5 90t-129 29.5q-78 0 -128 -29.5t-73.5 -90
t-23.5 -155.5t23.5 -156t73.5 -90t128 -29zM288 732l-83 115h74l57 -115h-48zM411 732l-83 115h74l57 -115h-48z" />
    <glyph glyph-name="Odieresis" unicode="&#xd6;" horiz-adv-x="719" 
d="M359 -10q-99 0 -165.5 38.5t-100 114.5t-33.5 190q0 170 75.5 256.5t223.5 86.5q100 0 166.5 -38.5t100 -114.5t33.5 -190q0 -170 -75.5 -256.5t-224.5 -86.5zM359 58q79 0 129 29t73.5 90t23.5 156t-23.5 155.5t-73.5 90t-129 29.5q-78 0 -128 -29.5t-73.5 -90
t-23.5 -155.5t23.5 -156t73.5 -90t128 -29zM401 726v79h79v-79h-79zM253 726v79h79v-79h-79z" />
    <glyph glyph-name="uni022A" unicode="&#x22a;" horiz-adv-x="719" 
d="M359 -10q-99 0 -165.5 38.5t-100 114.5t-33.5 190q0 170 75.5 256.5t223.5 86.5q100 0 166.5 -38.5t100 -114.5t33.5 -190q0 -170 -75.5 -256.5t-224.5 -86.5zM359 58q79 0 129 29t73.5 90t23.5 156t-23.5 155.5t-73.5 90t-129 29.5q-78 0 -128 -29.5t-73.5 -90
t-23.5 -155.5t23.5 -156t73.5 -90t128 -29zM401 726v79h79v-79h-79zM253 726v79h79v-79h-79zM250 884v53h234v-53h-234z" />
    <glyph glyph-name="uni0230" unicode="&#x230;" horiz-adv-x="719" 
d="M359 -10q-99 0 -165.5 38.5t-100 114.5t-33.5 190q0 170 75.5 256.5t223.5 86.5q100 0 166.5 -38.5t100 -114.5t33.5 -190q0 -170 -75.5 -256.5t-224.5 -86.5zM359 58q79 0 129 29t73.5 90t23.5 156t-23.5 155.5t-73.5 90t-129 29.5q-78 0 -128 -29.5t-73.5 -90
t-23.5 -155.5t23.5 -156t73.5 -90t128 -29zM327 704v79h79v-79h-79zM250 832v53h234v-53h-234z" />
    <glyph glyph-name="uni1ECC" unicode="&#x1ecc;" horiz-adv-x="719" 
d="M359 -10q-99 0 -165.5 38.5t-100 114.5t-33.5 190q0 170 75.5 256.5t223.5 86.5q100 0 166.5 -38.5t100 -114.5t33.5 -190q0 -170 -75.5 -256.5t-224.5 -86.5zM359 58q79 0 129 29t73.5 90t23.5 156t-23.5 155.5t-73.5 90t-129 29.5q-78 0 -128 -29.5t-73.5 -90
t-23.5 -155.5t23.5 -156t73.5 -90t128 -29zM327 -129v79h79v-79h-79z" />
    <glyph glyph-name="Ograve" unicode="&#xd2;" horiz-adv-x="719" 
d="M359 -10q-99 0 -165.5 38.5t-100 114.5t-33.5 190q0 170 75.5 256.5t223.5 86.5q100 0 166.5 -38.5t100 -114.5t33.5 -190q0 -170 -75.5 -256.5t-224.5 -86.5zM359 58q79 0 129 29t73.5 90t23.5 156t-23.5 155.5t-73.5 90t-129 29.5q-78 0 -128 -29.5t-73.5 -90
t-23.5 -155.5t23.5 -156t73.5 -90t128 -29zM348 721l-83 115h74l57 -115h-48z" />
    <glyph glyph-name="uni1ECE" unicode="&#x1ece;" horiz-adv-x="719" 
d="M359 -10q-99 0 -165.5 38.5t-100 114.5t-33.5 190q0 170 75.5 256.5t223.5 86.5q100 0 166.5 -38.5t100 -114.5t33.5 -190q0 -170 -75.5 -256.5t-224.5 -86.5zM359 58q79 0 129 29t73.5 90t23.5 156t-23.5 155.5t-73.5 90t-129 29.5q-78 0 -128 -29.5t-73.5 -90
t-23.5 -155.5t23.5 -156t73.5 -90t128 -29zM342 702v52q21 1 29.5 9t8.5 15q0 13 -12.5 19.5t-35.5 6.5q-7 0 -14 -0.5t-13 -1.5v43q8 2 15.5 2.5t15.5 0.5q21 0 42 -6t35.5 -20.5t14.5 -41.5q0 -19 -12.5 -34t-40.5 -20v-24h-33z" />
    <glyph glyph-name="Ohorn" unicode="&#x1a0;" horiz-adv-x="719" 
d="M359 -10q-99 0 -165.5 38.5t-100 114.5t-33.5 190q0 170 75.5 256.5t223.5 86.5q100 0 166.5 -38.5t100 -114.5t33.5 -190q0 -170 -75.5 -256.5t-224.5 -86.5zM359 58q79 0 129 29t73.5 90t23.5 156t-23.5 155.5t-73.5 90t-129 29.5q-78 0 -128 -29.5t-73.5 -90
t-23.5 -155.5t23.5 -156t73.5 -90t128 -29zM456 609l-2 52q28 0 51 20t23 48v26h54v-28q0 -37 -18 -63.5t-46.5 -40.5t-61.5 -14z" />
    <glyph glyph-name="uni1EDA" unicode="&#x1eda;" horiz-adv-x="719" 
d="M359 -10q-99 0 -165.5 38.5t-100 114.5t-33.5 190q0 170 75.5 256.5t223.5 86.5q100 0 166.5 -38.5t100 -114.5t33.5 -190q0 -170 -75.5 -256.5t-224.5 -86.5zM359 58q79 0 129 29t73.5 90t23.5 156t-23.5 155.5t-73.5 90t-129 29.5q-78 0 -128 -29.5t-73.5 -90
t-23.5 -155.5t23.5 -156t73.5 -90t128 -29zM456 609l-2 52q28 0 51 20t23 48v26h54v-28q0 -37 -18 -63.5t-46.5 -40.5t-61.5 -14zM349 732l57 115h74l-83 -115h-48z" />
    <glyph glyph-name="uni1EE2" unicode="&#x1ee2;" horiz-adv-x="719" 
d="M359 -10q-99 0 -165.5 38.5t-100 114.5t-33.5 190q0 170 75.5 256.5t223.5 86.5q100 0 166.5 -38.5t100 -114.5t33.5 -190q0 -170 -75.5 -256.5t-224.5 -86.5zM359 58q79 0 129 29t73.5 90t23.5 156t-23.5 155.5t-73.5 90t-129 29.5q-78 0 -128 -29.5t-73.5 -90
t-23.5 -155.5t23.5 -156t73.5 -90t128 -29zM456 609l-2 52q28 0 51 20t23 48v26h54v-28q0 -37 -18 -63.5t-46.5 -40.5t-61.5 -14zM327 -129v79h79v-79h-79z" />
    <glyph glyph-name="uni1EDC" unicode="&#x1edc;" horiz-adv-x="719" 
d="M359 -10q-99 0 -165.5 38.5t-100 114.5t-33.5 190q0 170 75.5 256.5t223.5 86.5q100 0 166.5 -38.5t100 -114.5t33.5 -190q0 -170 -75.5 -256.5t-224.5 -86.5zM359 58q79 0 129 29t73.5 90t23.5 156t-23.5 155.5t-73.5 90t-129 29.5q-78 0 -128 -29.5t-73.5 -90
t-23.5 -155.5t23.5 -156t73.5 -90t128 -29zM456 609l-2 52q28 0 51 20t23 48v26h54v-28q0 -37 -18 -63.5t-46.5 -40.5t-61.5 -14zM348 721l-83 115h74l57 -115h-48z" />
    <glyph glyph-name="uni1EDE" unicode="&#x1ede;" horiz-adv-x="719" 
d="M359 -10q-99 0 -165.5 38.5t-100 114.5t-33.5 190q0 170 75.5 256.5t223.5 86.5q100 0 166.5 -38.5t100 -114.5t33.5 -190q0 -170 -75.5 -256.5t-224.5 -86.5zM359 58q79 0 129 29t73.5 90t23.5 156t-23.5 155.5t-73.5 90t-129 29.5q-78 0 -128 -29.5t-73.5 -90
t-23.5 -155.5t23.5 -156t73.5 -90t128 -29zM456 609l-2 52q28 0 51 20t23 48v26h54v-28q0 -37 -18 -63.5t-46.5 -40.5t-61.5 -14zM342 702v52q21 1 29.5 9t8.5 15q0 13 -12.5 19.5t-35.5 6.5q-7 0 -14 -0.5t-13 -1.5v43q8 2 15.5 2.5t15.5 0.5q21 0 42 -6t35.5 -20.5
t14.5 -41.5q0 -19 -12.5 -34t-40.5 -20v-24h-33z" />
    <glyph glyph-name="uni1EE0" unicode="&#x1ee0;" horiz-adv-x="719" 
d="M359 -10q-99 0 -165.5 38.5t-100 114.5t-33.5 190q0 170 75.5 256.5t223.5 86.5q100 0 166.5 -38.5t100 -114.5t33.5 -190q0 -170 -75.5 -256.5t-224.5 -86.5zM359 58q79 0 129 29t73.5 90t23.5 156t-23.5 155.5t-73.5 90t-129 29.5q-78 0 -128 -29.5t-73.5 -90
t-23.5 -155.5t23.5 -156t73.5 -90t128 -29zM456 609l-2 52q28 0 51 20t23 48v26h54v-28q0 -37 -18 -63.5t-46.5 -40.5t-61.5 -14zM277 727h-46q-9 36 1 61t30.5 38t41.5 13q24 0 43 -9.5t34.5 -22t29.5 -22t29 -9.5q14 0 21.5 12.5t2.5 35.5h52q6 -29 -3 -52.5t-30 -37.5
t-51 -14q-22 0 -40 9.5t-33.5 21.5t-29.5 21.5t-26 9.5q-13 0 -22.5 -13t-3.5 -42z" />
    <glyph glyph-name="Ohungarumlaut" unicode="&#x150;" horiz-adv-x="719" 
d="M359 -10q-99 0 -165.5 38.5t-100 114.5t-33.5 190q0 170 75.5 256.5t223.5 86.5q100 0 166.5 -38.5t100 -114.5t33.5 -190q0 -170 -75.5 -256.5t-224.5 -86.5zM359 58q79 0 129 29t73.5 90t23.5 156t-23.5 155.5t-73.5 90t-129 29.5q-78 0 -128 -29.5t-73.5 -90
t-23.5 -155.5t23.5 -156t73.5 -90t128 -29zM401 704l57 115h74l-83 -115h-48zM281 704l57 115h74l-83 -115h-48z" />
    <glyph glyph-name="uni020E" unicode="&#x20e;" horiz-adv-x="719" 
d="M367 789q33 0 61 -13t47.5 -38t26.5 -63h-52q-12 30 -32.5 46t-50.5 16t-51 -16t-32 -46h-52q9 38 28.5 63t47 38t59.5 13zM359 -10q-99 0 -165.5 38.5t-100 114.5t-33.5 190q0 170 75.5 256.5t223.5 86.5q100 0 166.5 -38.5t100 -114.5t33.5 -190q0 -170 -75.5 -256.5
t-224.5 -86.5zM359 58q79 0 129 29t73.5 90t23.5 156t-23.5 155.5t-73.5 90t-129 29.5q-78 0 -128 -29.5t-73.5 -90t-23.5 -155.5t23.5 -156t73.5 -90t128 -29z" />
    <glyph glyph-name="Omacron" unicode="&#x14c;" horiz-adv-x="719" 
d="M359 -10q-99 0 -165.5 38.5t-100 114.5t-33.5 190q0 170 75.5 256.5t223.5 86.5q100 0 166.5 -38.5t100 -114.5t33.5 -190q0 -170 -75.5 -256.5t-224.5 -86.5zM359 58q79 0 129 29t73.5 90t23.5 156t-23.5 155.5t-73.5 90t-129 29.5q-78 0 -128 -29.5t-73.5 -90
t-23.5 -155.5t23.5 -156t73.5 -90t128 -29zM250 716v53h234v-53h-234z" />
    <glyph glyph-name="uni1E52" unicode="&#x1e52;" horiz-adv-x="719" 
d="M359 -10q-99 0 -165.5 38.5t-100 114.5t-33.5 190q0 170 75.5 256.5t223.5 86.5q100 0 166.5 -38.5t100 -114.5t33.5 -190q0 -170 -75.5 -256.5t-224.5 -86.5zM359 58q79 0 129 29t73.5 90t23.5 156t-23.5 155.5t-73.5 90t-129 29.5q-78 0 -128 -29.5t-73.5 -90
t-23.5 -155.5t23.5 -156t73.5 -90t128 -29zM250 716v53h234v-53h-234zM349 834l57 115h74l-83 -115h-48z" />
    <glyph glyph-name="uni1E50" unicode="&#x1e50;" horiz-adv-x="719" 
d="M359 -10q-99 0 -165.5 38.5t-100 114.5t-33.5 190q0 170 75.5 256.5t223.5 86.5q100 0 166.5 -38.5t100 -114.5t33.5 -190q0 -170 -75.5 -256.5t-224.5 -86.5zM359 58q79 0 129 29t73.5 90t23.5 156t-23.5 155.5t-73.5 90t-129 29.5q-78 0 -128 -29.5t-73.5 -90
t-23.5 -155.5t23.5 -156t73.5 -90t128 -29zM250 716v53h234v-53h-234zM348 823l-83 115h74l57 -115h-48z" />
    <glyph glyph-name="uni01EA" unicode="&#x1ea;" horiz-adv-x="719" 
d="M359 -10q-99 0 -165.5 38.5t-100 114.5t-33.5 190q0 170 75.5 256.5t223.5 86.5q100 0 166.5 -38.5t100 -114.5t33.5 -190q0 -170 -75.5 -256.5t-224.5 -86.5zM359 58q79 0 129 29t73.5 90t23.5 156t-23.5 155.5t-73.5 90t-129 29.5q-78 0 -128 -29.5t-73.5 -90
t-23.5 -155.5t23.5 -156t73.5 -90t128 -29zM385 -173q-40 0 -64 21.5t-24 61.5q0 25 18.5 52t54.5 42l78 -4q-40 -19 -66 -41t-26 -44q0 -18 9 -26t25 -8q20 0 34.5 10.5t20.5 16.5v-63q-12 -7 -26.5 -12.5t-33.5 -5.5z" />
    <glyph glyph-name="Oslash" unicode="&#xd8;" horiz-adv-x="719" 
d="M57 0l562 667h66l-563 -667h-65zM359 -10q-99 0 -165.5 38.5t-100 114.5t-33.5 190q0 170 75.5 256.5t223.5 86.5q100 0 166.5 -38.5t100 -114.5t33.5 -190q0 -170 -75.5 -256.5t-224.5 -86.5zM359 58q79 0 129 29t73.5 90t23.5 156t-23.5 155.5t-73.5 90t-129 29.5
q-78 0 -128 -29.5t-73.5 -90t-23.5 -155.5t23.5 -156t73.5 -90t128 -29z" />
    <glyph glyph-name="Oslashacute" unicode="&#x1fe;" horiz-adv-x="719" 
d="M57 0l562 667h66l-563 -667h-65zM359 -10q-99 0 -165.5 38.5t-100 114.5t-33.5 190q0 170 75.5 256.5t223.5 86.5q100 0 166.5 -38.5t100 -114.5t33.5 -190q0 -170 -75.5 -256.5t-224.5 -86.5zM359 58q79 0 129 29t73.5 90t23.5 156t-23.5 155.5t-73.5 90t-129 29.5
q-78 0 -128 -29.5t-73.5 -90t-23.5 -155.5t23.5 -156t73.5 -90t128 -29zM342 732l57 115h74l-83 -115h-48z" />
    <glyph glyph-name="Otilde" unicode="&#xd5;" horiz-adv-x="719" 
d="M359 -10q-99 0 -165.5 38.5t-100 114.5t-33.5 190q0 170 75.5 256.5t223.5 86.5q100 0 166.5 -38.5t100 -114.5t33.5 -190q0 -170 -75.5 -256.5t-224.5 -86.5zM359 58q79 0 129 29t73.5 90t23.5 156t-23.5 155.5t-73.5 90t-129 29.5q-78 0 -128 -29.5t-73.5 -90
t-23.5 -155.5t23.5 -156t73.5 -90t128 -29zM277 727h-46q-9 36 1 61t30.5 38t41.5 13q24 0 43 -9.5t34.5 -22t29.5 -22t29 -9.5q14 0 21.5 12.5t2.5 35.5h52q6 -29 -3 -52.5t-30 -37.5t-51 -14q-22 0 -40 9.5t-33.5 21.5t-29.5 21.5t-26 9.5q-13 0 -22.5 -13t-3.5 -42z" />
    <glyph glyph-name="uni1E4C" unicode="&#x1e4c;" horiz-adv-x="719" 
d="M359 -10q-99 0 -165.5 38.5t-100 114.5t-33.5 190q0 170 75.5 256.5t223.5 86.5q100 0 166.5 -38.5t100 -114.5t33.5 -190q0 -170 -75.5 -256.5t-224.5 -86.5zM359 58q79 0 129 29t73.5 90t23.5 156t-23.5 155.5t-73.5 90t-129 29.5q-78 0 -128 -29.5t-73.5 -90
t-23.5 -155.5t23.5 -156t73.5 -90t128 -29zM277 727h-46q-9 36 1 61t30.5 38t41.5 13q24 0 43 -9.5t34.5 -22t29.5 -22t29 -9.5q14 0 21.5 12.5t2.5 35.5h52q6 -29 -3 -52.5t-30 -37.5t-51 -14q-22 0 -40 9.5t-33.5 21.5t-29.5 21.5t-26 9.5q-13 0 -22.5 -13t-3.5 -42z
M349 915l57 115h74l-83 -115h-48z" />
    <glyph glyph-name="uni1E4E" unicode="&#x1e4e;" horiz-adv-x="719" 
d="M359 -10q-99 0 -165.5 38.5t-100 114.5t-33.5 190q0 170 75.5 256.5t223.5 86.5q100 0 166.5 -38.5t100 -114.5t33.5 -190q0 -170 -75.5 -256.5t-224.5 -86.5zM359 58q79 0 129 29t73.5 90t23.5 156t-23.5 155.5t-73.5 90t-129 29.5q-78 0 -128 -29.5t-73.5 -90
t-23.5 -155.5t23.5 -156t73.5 -90t128 -29zM277 727h-46q-9 36 1 61t30.5 38t41.5 13q24 0 43 -9.5t34.5 -22t29.5 -22t29 -9.5q14 0 21.5 12.5t2.5 35.5h52q6 -29 -3 -52.5t-30 -37.5t-51 -14q-22 0 -40 9.5t-33.5 21.5t-29.5 21.5t-26 9.5q-13 0 -22.5 -13t-3.5 -42z
M401 909v79h79v-79h-79zM253 909v79h79v-79h-79z" />
    <glyph glyph-name="uni022C" unicode="&#x22c;" horiz-adv-x="719" 
d="M359 -10q-99 0 -165.5 38.5t-100 114.5t-33.5 190q0 170 75.5 256.5t223.5 86.5q100 0 166.5 -38.5t100 -114.5t33.5 -190q0 -170 -75.5 -256.5t-224.5 -86.5zM359 58q79 0 129 29t73.5 90t23.5 156t-23.5 155.5t-73.5 90t-129 29.5q-78 0 -128 -29.5t-73.5 -90
t-23.5 -155.5t23.5 -156t73.5 -90t128 -29zM277 727h-46q-9 36 1 61t30.5 38t41.5 13q24 0 43 -9.5t34.5 -22t29.5 -22t29 -9.5q14 0 21.5 12.5t2.5 35.5h52q6 -29 -3 -52.5t-30 -37.5t-51 -14q-22 0 -40 9.5t-33.5 21.5t-29.5 21.5t-26 9.5q-13 0 -22.5 -13t-3.5 -42z
M250 899v53h234v-53h-234z" />
    <glyph glyph-name="OE" unicode="&#x152;" horiz-adv-x="1082" 
d="M359 -10q-99 0 -165.5 38.5t-100 114.5t-33.5 190q0 170 75.5 256.5t223.5 86.5q100 0 166.5 -38.5t100 -114.5t33.5 -190q0 -170 -75.5 -256.5t-224.5 -86.5zM359 58q79 0 129 29t73.5 90t23.5 156t-23.5 155.5t-73.5 90t-129 29.5q-78 0 -128 -29.5t-73.5 -90
t-23.5 -155.5t23.5 -156t73.5 -90t128 -29zM586 0v667h421v-68h-349v-230h307v-70h-307v-231h349v-68h-421z" />
    <glyph glyph-name="P" unicode="P" horiz-adv-x="613" 
d="M157 255v-255h-72v667h237q112 0 171.5 -53t59.5 -153t-59.5 -153t-171.5 -53h-165zM157 324h156q56 0 89.5 12t50.5 32.5t22.5 44.5t5.5 48t-5.5 48t-22.5 44.5t-50.5 32.5t-89.5 12h-156v-274z" />
    <glyph glyph-name="Thorn" unicode="&#xde;" horiz-adv-x="570" 
d="M86 0v667h72v-101h130q111 0 170.5 -53.5t59.5 -153.5t-59.5 -153t-170.5 -53h-130v-153h-72zM158 222h120q56 0 89.5 12t50.5 32.5t22.5 44.5t5.5 48t-5.5 48t-22.5 44.5t-50.5 32.5t-89.5 12h-120v-274z" />
    <glyph glyph-name="Q" unicode="Q" horiz-adv-x="719" 
d="M359 -10q-148 0 -223.5 86.5t-75.5 256.5t75.5 256.5t223.5 86.5q149 0 224.5 -86.5t75.5 -256.5t-75.5 -256.5t-224.5 -86.5zM359 58q80 3 130 32t73 88.5t23 154.5t-23.5 155.5t-73.5 90t-129 29.5q-78 0 -128 -29.5t-73.5 -90t-23.5 -155.5t23.5 -156t73.5 -90
t128 -29zM599 -28q13 0 25.5 3.5t33.5 16.5v-64q-22 -12 -40 -15t-27 -3q-23 0 -43 7.5t-37.5 21.5t-32.5 33.5t-27 43.5q-15 30 -31.5 58t-39.5 46t-60 18q-38 0 -64.5 -17t-47.5 -40v72q17 13 46 29.5t74 16.5q47 0 82 -22.5t60.5 -56t43.5 -68.5q23 -44 43 -62t42 -18z
" />
    <glyph glyph-name="R" unicode="R" horiz-adv-x="631" 
d="M85 0v667h274q98 0 147.5 -49t49.5 -145q0 -58 -24 -103t-67 -71t-101 -26l30 20l192 -293h-85l-198 306l36 -37h-182v-269h-72zM157 337h169q83 0 120.5 33.5t37.5 97.5q0 60 -28 95.5t-105 35.5h-194v-262z" />
    <glyph glyph-name="Racute" unicode="&#x154;" horiz-adv-x="631" 
d="M85 0v667h274q98 0 147.5 -49t49.5 -145q0 -58 -24 -103t-67 -71t-101 -26l30 20l192 -293h-85l-198 306l36 -37h-182v-269h-72zM157 337h169q83 0 120.5 33.5t37.5 97.5q0 60 -28 95.5t-105 35.5h-194v-262zM278 732l57 115h74l-83 -115h-48z" />
    <glyph glyph-name="Rcaron" unicode="&#x158;" horiz-adv-x="631" 
d="M85 0v667h274q98 0 147.5 -49t49.5 -145q0 -58 -24 -103t-67 -71t-101 -26l30 20l192 -293h-85l-198 306l36 -37h-182v-269h-72zM157 337h169q83 0 120.5 33.5t37.5 97.5q0 60 -28 95.5t-105 35.5h-194v-262zM276 704l-81 120h56l45 -70l45 70h56l-80 -120h-41z" />
    <glyph glyph-name="uni0156" unicode="&#x156;" horiz-adv-x="631" 
d="M85 0v667h274q98 0 147.5 -49t49.5 -145q0 -58 -24 -103t-67 -71t-101 -26l30 20l192 -293h-85l-198 306l36 -37h-182v-269h-72zM157 337h169q83 0 120.5 33.5t37.5 97.5q0 60 -28 95.5t-105 35.5h-194v-262zM266 -193v54q19 8 27 23.5t10.5 34t2.5 32.5h60
q0 -48 -16 -78t-39 -45.5t-45 -20.5z" />
    <glyph glyph-name="uni0210" unicode="&#x210;" horiz-adv-x="631" 
d="M85 0v667h274q98 0 147.5 -49t49.5 -145q0 -58 -24 -103t-67 -71t-101 -26l30 20l192 -293h-85l-198 306l36 -37h-182v-269h-72zM157 337h169q83 0 120.5 33.5t37.5 97.5q0 60 -28 95.5t-105 35.5h-194v-262zM217 732l-83 115h74l57 -115h-48zM340 732l-83 115h74
l57 -115h-48z" />
    <glyph glyph-name="uni0212" unicode="&#x212;" horiz-adv-x="631" 
d="M296 789q33 0 61 -13t47.5 -38t26.5 -63h-52q-12 30 -32.5 46t-50.5 16t-51 -16t-32 -46h-52q9 38 28.5 63t47 38t59.5 13zM85 0v667h274q98 0 147.5 -49t49.5 -145q0 -58 -24 -103t-67 -71t-101 -26l30 20l192 -293h-85l-198 306l36 -37h-182v-269h-72zM157 337h169
q83 0 120.5 33.5t37.5 97.5q0 60 -28 95.5t-105 35.5h-194v-262z" />
    <glyph glyph-name="uni1E5E" unicode="&#x1e5e;" horiz-adv-x="631" 
d="M85 0v667h274q98 0 147.5 -49t49.5 -145q0 -58 -24 -103t-67 -71t-101 -26l30 20l192 -293h-85l-198 306l36 -37h-182v-269h-72zM157 337h169q83 0 120.5 33.5t37.5 97.5q0 60 -28 95.5t-105 35.5h-194v-262zM199 -119v53h234v-53h-234z" />
    <glyph glyph-name="S" unicode="S" horiz-adv-x="555" 
d="M274 -10q-50 0 -85 7t-63 20t-61 30v78q32 -27 86 -48t126 -21q76 0 110.5 32.5t34.5 82.5q0 42 -23 67.5t-59 42t-76 31.5q-34 12 -67.5 25.5t-60.5 34t-43 53t-16 81.5q0 27 10.5 57t34 56t63 42t96.5 16q39 0 66.5 -5.5t52.5 -16t56 -25.5v-74q-26 15 -49.5 27.5
t-52 20t-69.5 7.5q-49 0 -78.5 -14t-43 -37t-13.5 -49q0 -41 18.5 -65t52 -39.5t77.5 -30.5q35 -12 70 -26.5t63.5 -36t46 -54t17.5 -80.5q0 -45 -20 -88.5t-68 -72t-133 -28.5z" />
    <glyph glyph-name="Sacute" unicode="&#x15a;" horiz-adv-x="555" 
d="M274 -10q-50 0 -85 7t-63 20t-61 30v78q32 -27 86 -48t126 -21q76 0 110.5 32.5t34.5 82.5q0 42 -23 67.5t-59 42t-76 31.5q-34 12 -67.5 25.5t-60.5 34t-43 53t-16 81.5q0 27 10.5 57t34 56t63 42t96.5 16q39 0 66.5 -5.5t52.5 -16t56 -25.5v-74q-26 15 -49.5 27.5
t-52 20t-69.5 7.5q-49 0 -78.5 -14t-43 -37t-13.5 -49q0 -41 18.5 -65t52 -39.5t77.5 -30.5q35 -12 70 -26.5t63.5 -36t46 -54t17.5 -80.5q0 -45 -20 -88.5t-68 -72t-133 -28.5zM261 732l57 115h74l-83 -115h-48z" />
    <glyph glyph-name="uni1E64" unicode="&#x1e64;" horiz-adv-x="555" 
d="M274 -10q-50 0 -85 7t-63 20t-61 30v78q32 -27 86 -48t126 -21q76 0 110.5 32.5t34.5 82.5q0 42 -23 67.5t-59 42t-76 31.5q-34 12 -67.5 25.5t-60.5 34t-43 53t-16 81.5q0 27 10.5 57t34 56t63 42t96.5 16q39 0 66.5 -5.5t52.5 -16t56 -25.5v-74q-26 15 -49.5 27.5
t-52 20t-69.5 7.5q-49 0 -78.5 -14t-43 -37t-13.5 -49q0 -41 18.5 -65t52 -39.5t77.5 -30.5q35 -12 70 -26.5t63.5 -36t46 -54t17.5 -80.5q0 -45 -20 -88.5t-68 -72t-133 -28.5zM291 732l57 115h74l-83 -115h-48zM196 735v79h79v-79h-79z" />
    <glyph glyph-name="Scaron" unicode="&#x160;" horiz-adv-x="555" 
d="M274 -10q-50 0 -85 7t-63 20t-61 30v78q32 -27 86 -48t126 -21q76 0 110.5 32.5t34.5 82.5q0 42 -23 67.5t-59 42t-76 31.5q-34 12 -67.5 25.5t-60.5 34t-43 53t-16 81.5q0 27 10.5 57t34 56t63 42t96.5 16q39 0 66.5 -5.5t52.5 -16t56 -25.5v-74q-26 15 -49.5 27.5
t-52 20t-69.5 7.5q-49 0 -78.5 -14t-43 -37t-13.5 -49q0 -41 18.5 -65t52 -39.5t77.5 -30.5q35 -12 70 -26.5t63.5 -36t46 -54t17.5 -80.5q0 -45 -20 -88.5t-68 -72t-133 -28.5zM259 704l-81 120h56l45 -70l45 70h56l-80 -120h-41z" />
    <glyph glyph-name="uni1E66" unicode="&#x1e66;" horiz-adv-x="555" 
d="M274 -10q-50 0 -85 7t-63 20t-61 30v78q32 -27 86 -48t126 -21q76 0 110.5 32.5t34.5 82.5q0 42 -23 67.5t-59 42t-76 31.5q-34 12 -67.5 25.5t-60.5 34t-43 53t-16 81.5q0 27 10.5 57t34 56t63 42t96.5 16q39 0 66.5 -5.5t52.5 -16t56 -25.5v-74q-26 15 -49.5 27.5
t-52 20t-69.5 7.5q-49 0 -78.5 -14t-43 -37t-13.5 -49q0 -41 18.5 -65t52 -39.5t77.5 -30.5q35 -12 70 -26.5t63.5 -36t46 -54t17.5 -80.5q0 -45 -20 -88.5t-68 -72t-133 -28.5zM259 704l-81 120h56l45 -70l45 70h56l-80 -120h-41zM239 861v79h79v-79h-79z" />
    <glyph glyph-name="Scedilla" unicode="&#x15e;" horiz-adv-x="555" 
d="M274 -10q-50 0 -85 7t-63 20t-61 30v78q32 -27 86 -48t126 -21q76 0 110.5 32.5t34.5 82.5q0 42 -23 67.5t-59 42t-76 31.5q-34 12 -67.5 25.5t-60.5 34t-43 53t-16 81.5q0 27 10.5 57t34 56t63 42t96.5 16q39 0 66.5 -5.5t52.5 -16t56 -25.5v-74q-26 15 -49.5 27.5
t-52 20t-69.5 7.5q-49 0 -78.5 -14t-43 -37t-13.5 -49q0 -41 18.5 -65t52 -39.5t77.5 -30.5q35 -12 70 -26.5t63.5 -36t46 -54t17.5 -80.5q0 -45 -20 -88.5t-68 -72t-133 -28.5zM209 -110l82 115h57l-63 -115h-76z" />
    <glyph glyph-name="Scircumflex" unicode="&#x15c;" horiz-adv-x="555" 
d="M274 -10q-50 0 -85 7t-63 20t-61 30v78q32 -27 86 -48t126 -21q76 0 110.5 32.5t34.5 82.5q0 42 -23 67.5t-59 42t-76 31.5q-34 12 -67.5 25.5t-60.5 34t-43 53t-16 81.5q0 27 10.5 57t34 56t63 42t96.5 16q39 0 66.5 -5.5t52.5 -16t56 -25.5v-74q-26 15 -49.5 27.5
t-52 20t-69.5 7.5q-49 0 -78.5 -14t-43 -37t-13.5 -49q0 -41 18.5 -65t52 -39.5t77.5 -30.5q35 -12 70 -26.5t63.5 -36t46 -54t17.5 -80.5q0 -45 -20 -88.5t-68 -72t-133 -28.5zM168 719l81 120h61l80 -120h-46l-65 70l-65 -70h-46z" />
    <glyph glyph-name="uni0218" unicode="&#x218;" horiz-adv-x="555" 
d="M274 -10q-50 0 -85 7t-63 20t-61 30v78q32 -27 86 -48t126 -21q76 0 110.5 32.5t34.5 82.5q0 42 -23 67.5t-59 42t-76 31.5q-34 12 -67.5 25.5t-60.5 34t-43 53t-16 81.5q0 27 10.5 57t34 56t63 42t96.5 16q39 0 66.5 -5.5t52.5 -16t56 -25.5v-74q-26 15 -49.5 27.5
t-52 20t-69.5 7.5q-49 0 -78.5 -14t-43 -37t-13.5 -49q0 -41 18.5 -65t52 -39.5t77.5 -30.5q35 -12 70 -26.5t63.5 -36t46 -54t17.5 -80.5q0 -45 -20 -88.5t-68 -72t-133 -28.5zM229 -193v54q19 8 27 23.5t10.5 34t2.5 32.5h60q0 -48 -16 -78t-39 -45.5t-45 -20.5z" />
    <glyph glyph-name="uni1E60" unicode="&#x1e60;" horiz-adv-x="555" 
d="M274 -10q-50 0 -85 7t-63 20t-61 30v78q32 -27 86 -48t126 -21q76 0 110.5 32.5t34.5 82.5q0 42 -23 67.5t-59 42t-76 31.5q-34 12 -67.5 25.5t-60.5 34t-43 53t-16 81.5q0 27 10.5 57t34 56t63 42t96.5 16q39 0 66.5 -5.5t52.5 -16t56 -25.5v-74q-26 15 -49.5 27.5
t-52 20t-69.5 7.5q-49 0 -78.5 -14t-43 -37t-13.5 -49q0 -41 18.5 -65t52 -39.5t77.5 -30.5q35 -12 70 -26.5t63.5 -36t46 -54t17.5 -80.5q0 -45 -20 -88.5t-68 -72t-133 -28.5zM239 704v79h79v-79h-79z" />
    <glyph glyph-name="uni1E62" unicode="&#x1e62;" horiz-adv-x="555" 
d="M274 -10q-50 0 -85 7t-63 20t-61 30v78q32 -27 86 -48t126 -21q76 0 110.5 32.5t34.5 82.5q0 42 -23 67.5t-59 42t-76 31.5q-34 12 -67.5 25.5t-60.5 34t-43 53t-16 81.5q0 27 10.5 57t34 56t63 42t96.5 16q39 0 66.5 -5.5t52.5 -16t56 -25.5v-74q-26 15 -49.5 27.5
t-52 20t-69.5 7.5q-49 0 -78.5 -14t-43 -37t-13.5 -49q0 -41 18.5 -65t52 -39.5t77.5 -30.5q35 -12 70 -26.5t63.5 -36t46 -54t17.5 -80.5q0 -45 -20 -88.5t-68 -72t-133 -28.5zM239 -129v79h79v-79h-79z" />
    <glyph glyph-name="uni1E68" unicode="&#x1e68;" horiz-adv-x="555" 
d="M274 -10q-50 0 -85 7t-63 20t-61 30v78q32 -27 86 -48t126 -21q76 0 110.5 32.5t34.5 82.5q0 42 -23 67.5t-59 42t-76 31.5q-34 12 -67.5 25.5t-60.5 34t-43 53t-16 81.5q0 27 10.5 57t34 56t63 42t96.5 16q39 0 66.5 -5.5t52.5 -16t56 -25.5v-74q-26 15 -49.5 27.5
t-52 20t-69.5 7.5q-49 0 -78.5 -14t-43 -37t-13.5 -49q0 -41 18.5 -65t52 -39.5t77.5 -30.5q35 -12 70 -26.5t63.5 -36t46 -54t17.5 -80.5q0 -45 -20 -88.5t-68 -72t-133 -28.5zM239 -129v79h79v-79h-79zM239 704v79h79v-79h-79z" />
    <glyph glyph-name="uni1E9E" unicode="&#x1e9e;" horiz-adv-x="706" 
d="M85 0v454q0 62 26.5 112.5t80 80.5t134.5 30q84 0 133 -19.5t78.5 -55t54.5 -82.5v-21l-192 -88v43q71 -18 126.5 -48.5t87.5 -78.5t32 -118q0 -39 -11 -78t-36 -71t-68 -51t-106 -19q-40 0 -80.5 15.5t-78.5 41.5v78q25 -27 66 -48t96 -21q76 0 110.5 40.5t34.5 104.5
q0 58 -25.5 96.5t-73.5 62t-116 36.5v54l185 88l-16 -27q-10 27 -34.5 52t-65 40.5t-97.5 15.5t-95.5 -20t-58 -55.5t-19.5 -82.5v-461h-72z" />
    <glyph glyph-name="uni018F" unicode="&#x18f;" horiz-adv-x="717" 
d="M346 672q96 0 165.5 -38t107.5 -114.5t38 -192.5q0 -114 -36.5 -189t-103.5 -112t-159 -37q-108 0 -174 46t-95.5 125.5t-28.5 179.5h561l-5 -66h-509l28 10q2 -78 26.5 -129t73 -75.5t123.5 -24.5q78 0 128 24.5t74 86.5t24 174q0 133 -64.5 199.5t-177.5 66.5
q-52 0 -100 -10.5t-86.5 -26.5t-64.5 -33v74q48 26 113.5 44t141.5 18z" />
    <glyph glyph-name="T" unicode="T" horiz-adv-x="583" 
d="M256 0v599h-236v68h543v-68h-235v-599h-72z" />
    <glyph glyph-name="Tbar" unicode="&#x166;" horiz-adv-x="583" 
d="M256 0v599h-236v68h543v-68h-235v-599h-72zM170 307v53h244v-53h-244z" />
    <glyph glyph-name="Tcaron" unicode="&#x164;" horiz-adv-x="568" 
d="M248 0v597h-236v70h543v-70h-235v-597h-72zM263 724l-81 121h56l46 -71l45 71h56l-81 -121h-41z" />
    <glyph glyph-name="uni0162" unicode="&#x162;" horiz-adv-x="583" 
d="M256 0v599h-236v68h543v-68h-235v-599h-72zM222 -110l82 115h57l-63 -115h-76z" />
    <glyph glyph-name="uni1E6E" unicode="&#x1e6e;" horiz-adv-x="583" 
d="M256 0v599h-236v68h543v-68h-235v-599h-72zM175 -119v53h234v-53h-234z" />
    <glyph glyph-name="U" unicode="U" horiz-adv-x="692" 
d="M346 -10q-124 0 -192.5 73t-68.5 209v395h72v-399q0 -107 48 -158.5t141 -51.5t142 51.5t49 158.5v399h70v-395q0 -91 -31 -154t-89 -95.5t-141 -32.5z" />
    <glyph glyph-name="Uacute" unicode="&#xda;" horiz-adv-x="692" 
d="M346 -10q-124 0 -192.5 73t-68.5 209v395h72v-399q0 -107 48 -158.5t141 -51.5t142 51.5t49 158.5v399h70v-395q0 -91 -31 -154t-89 -95.5t-141 -32.5zM328 732l57 115h74l-83 -115h-48z" />
    <glyph glyph-name="Ubreve" unicode="&#x16c;" horiz-adv-x="692" 
d="M346 -10q-124 0 -192.5 73t-68.5 209v395h72v-399q0 -107 48 -158.5t141 -51.5t142 51.5t49 158.5v399h70v-395q0 -91 -31 -154t-89 -95.5t-141 -32.5zM346 695q-32 0 -59.5 13t-47 38.5t-28.5 62.5h52q11 -30 32 -46t51 -16t50.5 16t32.5 46h52q-7 -37 -26.5 -62.5
t-47.5 -38.5t-61 -13z" />
    <glyph glyph-name="uni01D3" unicode="&#x1d3;" horiz-adv-x="692" 
d="M346 -10q-124 0 -192.5 73t-68.5 209v395h72v-399q0 -107 48 -158.5t141 -51.5t142 51.5t49 158.5v399h70v-395q0 -91 -31 -154t-89 -95.5t-141 -32.5zM326 704l-81 120h56l45 -70l45 70h56l-80 -120h-41z" />
    <glyph glyph-name="Ucircumflex" unicode="&#xdb;" horiz-adv-x="692" 
d="M346 -10q-124 0 -192.5 73t-68.5 209v395h72v-399q0 -107 48 -158.5t141 -51.5t142 51.5t49 158.5v399h70v-395q0 -91 -31 -154t-89 -95.5t-141 -32.5zM235 719l81 120h61l80 -120h-46l-65 70l-65 -70h-46z" />
    <glyph glyph-name="uni0214" unicode="&#x214;" horiz-adv-x="692" 
d="M346 -10q-124 0 -192.5 73t-68.5 209v395h72v-399q0 -107 48 -158.5t141 -51.5t142 51.5t49 158.5v399h70v-395q0 -91 -31 -154t-89 -95.5t-141 -32.5zM267 732l-83 115h74l57 -115h-48zM390 732l-83 115h74l57 -115h-48z" />
    <glyph glyph-name="Udieresis" unicode="&#xdc;" horiz-adv-x="692" 
d="M346 -10q-124 0 -192.5 73t-68.5 209v395h72v-399q0 -107 48 -158.5t141 -51.5t142 51.5t49 158.5v399h70v-395q0 -91 -31 -154t-89 -95.5t-141 -32.5zM380 726v79h79v-79h-79zM232 726v79h79v-79h-79z" />
    <glyph glyph-name="uni1EE4" unicode="&#x1ee4;" horiz-adv-x="692" 
d="M346 -10q-124 0 -192.5 73t-68.5 209v395h72v-399q0 -107 48 -158.5t141 -51.5t142 51.5t49 158.5v399h70v-395q0 -91 -31 -154t-89 -95.5t-141 -32.5zM306 -129v79h79v-79h-79z" />
    <glyph glyph-name="Ugrave" unicode="&#xd9;" horiz-adv-x="692" 
d="M346 -10q-124 0 -192.5 73t-68.5 209v395h72v-399q0 -107 48 -158.5t141 -51.5t142 51.5t49 158.5v399h70v-395q0 -91 -31 -154t-89 -95.5t-141 -32.5zM327 721l-83 115h74l57 -115h-48z" />
    <glyph glyph-name="uni1EE6" unicode="&#x1ee6;" horiz-adv-x="692" 
d="M346 -10q-124 0 -192.5 73t-68.5 209v395h72v-399q0 -107 48 -158.5t141 -51.5t142 51.5t49 158.5v399h70v-395q0 -91 -31 -154t-89 -95.5t-141 -32.5zM321 702v52q21 1 29.5 9t8.5 15q0 13 -12.5 19.5t-35.5 6.5q-7 0 -14 -0.5t-13 -1.5v43q8 2 15.5 2.5t15.5 0.5
q21 0 42 -6t35.5 -20.5t14.5 -41.5q0 -19 -12.5 -34t-40.5 -20v-24h-33z" />
    <glyph glyph-name="Uhorn" unicode="&#x1af;" horiz-adv-x="692" 
d="M346 -10q-124 0 -192.5 73t-68.5 209v395h72v-399q0 -107 48 -158.5t141 -51.5t142 51.5t49 158.5v399h70v-395q0 -91 -31 -154t-89 -95.5t-141 -32.5zM568 614l-2 52q28 0 51 20t23 48v26h54v-28q0 -37 -18 -63.5t-46.5 -40.5t-61.5 -14z" />
    <glyph glyph-name="uni1EE8" unicode="&#x1ee8;" horiz-adv-x="692" 
d="M346 -10q-124 0 -192.5 73t-68.5 209v395h72v-399q0 -107 48 -158.5t141 -51.5t142 51.5t49 158.5v399h70v-395q0 -91 -31 -154t-89 -95.5t-141 -32.5zM568 614l-2 52q28 0 51 20t23 48v26h54v-28q0 -37 -18 -63.5t-46.5 -40.5t-61.5 -14zM328 732l57 115h74l-83 -115
h-48z" />
    <glyph glyph-name="uni1EF0" unicode="&#x1ef0;" horiz-adv-x="692" 
d="M346 -10q-124 0 -192.5 73t-68.5 209v395h72v-399q0 -107 48 -158.5t141 -51.5t142 51.5t49 158.5v399h70v-395q0 -91 -31 -154t-89 -95.5t-141 -32.5zM568 614l-2 52q28 0 51 20t23 48v26h54v-28q0 -37 -18 -63.5t-46.5 -40.5t-61.5 -14zM306 -129v79h79v-79h-79z" />
    <glyph glyph-name="uni1EEA" unicode="&#x1eea;" horiz-adv-x="692" 
d="M346 -10q-124 0 -192.5 73t-68.5 209v395h72v-399q0 -107 48 -158.5t141 -51.5t142 51.5t49 158.5v399h70v-395q0 -91 -31 -154t-89 -95.5t-141 -32.5zM568 614l-2 52q28 0 51 20t23 48v26h54v-28q0 -37 -18 -63.5t-46.5 -40.5t-61.5 -14zM327 721l-83 115h74l57 -115
h-48z" />
    <glyph glyph-name="uni1EEC" unicode="&#x1eec;" horiz-adv-x="692" 
d="M346 -10q-124 0 -192.5 73t-68.5 209v395h72v-399q0 -107 48 -158.5t141 -51.5t142 51.5t49 158.5v399h70v-395q0 -91 -31 -154t-89 -95.5t-141 -32.5zM568 614l-2 52q28 0 51 20t23 48v26h54v-28q0 -37 -18 -63.5t-46.5 -40.5t-61.5 -14zM321 702v52q21 1 29.5 9t8.5 15
q0 13 -12.5 19.5t-35.5 6.5q-7 0 -14 -0.5t-13 -1.5v43q8 2 15.5 2.5t15.5 0.5q21 0 42 -6t35.5 -20.5t14.5 -41.5q0 -19 -12.5 -34t-40.5 -20v-24h-33z" />
    <glyph glyph-name="uni1EEE" unicode="&#x1eee;" horiz-adv-x="692" 
d="M346 -10q-124 0 -192.5 73t-68.5 209v395h72v-399q0 -107 48 -158.5t141 -51.5t142 51.5t49 158.5v399h70v-395q0 -91 -31 -154t-89 -95.5t-141 -32.5zM568 614l-2 52q28 0 51 20t23 48v26h54v-28q0 -37 -18 -63.5t-46.5 -40.5t-61.5 -14zM256 727h-46q-9 36 1 61
t30.5 38t41.5 13q24 0 43 -9.5t34.5 -22t29.5 -22t29 -9.5q14 0 21.5 12.5t2.5 35.5h52q6 -29 -3 -52.5t-30 -37.5t-51 -14q-22 0 -40 9.5t-33.5 21.5t-29.5 21.5t-26 9.5q-13 0 -22.5 -13t-3.5 -42z" />
    <glyph glyph-name="Uhungarumlaut" unicode="&#x170;" horiz-adv-x="692" 
d="M346 -10q-124 0 -192.5 73t-68.5 209v395h72v-399q0 -107 48 -158.5t141 -51.5t142 51.5t49 158.5v399h70v-395q0 -91 -31 -154t-89 -95.5t-141 -32.5zM380 704l57 115h74l-83 -115h-48zM260 704l57 115h74l-83 -115h-48z" />
    <glyph glyph-name="uni0216" unicode="&#x216;" horiz-adv-x="692" 
d="M346 789q33 0 61 -13t47.5 -38t26.5 -63h-52q-12 30 -32.5 46t-50.5 16t-51 -16t-32 -46h-52q9 38 28.5 63t47 38t59.5 13zM346 -10q-124 0 -192.5 73t-68.5 209v395h72v-399q0 -107 48 -158.5t141 -51.5t142 51.5t49 158.5v399h70v-395q0 -91 -31 -154t-89 -95.5
t-141 -32.5z" />
    <glyph glyph-name="Umacron" unicode="&#x16a;" horiz-adv-x="692" 
d="M346 -10q-124 0 -192.5 73t-68.5 209v395h72v-399q0 -107 48 -158.5t141 -51.5t142 51.5t49 158.5v399h70v-395q0 -91 -31 -154t-89 -95.5t-141 -32.5zM229 716v53h234v-53h-234z" />
    <glyph glyph-name="uni1E7A" unicode="&#x1e7a;" horiz-adv-x="692" 
d="M346 -10q-124 0 -192.5 73t-68.5 209v395h72v-399q0 -107 48 -158.5t141 -51.5t142 51.5t49 158.5v399h70v-395q0 -91 -31 -154t-89 -95.5t-141 -32.5zM229 716v53h234v-53h-234zM380 828v79h79v-79h-79zM232 828v79h79v-79h-79z" />
    <glyph glyph-name="Uogonek" unicode="&#x172;" horiz-adv-x="692" 
d="M346 -10q-124 0 -192.5 73t-68.5 209v395h72v-399q0 -107 48 -158.5t141 -51.5t142 51.5t49 158.5v399h70v-395q0 -91 -31 -154t-89 -95.5t-141 -32.5zM368 -173q-40 0 -64 21.5t-24 61.5q0 25 18.5 52t54.5 42l78 -4q-40 -19 -66 -41t-26 -44q0 -18 9 -26t25 -8
q20 0 34.5 10.5t20.5 16.5v-63q-12 -7 -26.5 -12.5t-33.5 -5.5z" />
    <glyph glyph-name="Uring" unicode="&#x16e;" horiz-adv-x="692" 
d="M346 -10q-124 0 -192.5 73t-68.5 209v395h72v-399q0 -107 48 -158.5t141 -51.5t142 51.5t49 158.5v399h70v-395q0 -91 -31 -154t-89 -95.5t-141 -32.5zM346 640q-55 0 -78 22.5t-23 69.5t23 69.5t78 22.5q54 0 77.5 -22.5t23.5 -69.5t-23.5 -69.5t-77.5 -22.5zM346 683
q32 0 43 11.5t11 37.5t-11 37t-43 11t-43.5 -11t-11.5 -37t11.5 -37.5t43.5 -11.5z" />
    <glyph glyph-name="Utilde" unicode="&#x168;" horiz-adv-x="692" 
d="M346 -10q-124 0 -192.5 73t-68.5 209v395h72v-399q0 -107 48 -158.5t141 -51.5t142 51.5t49 158.5v399h70v-395q0 -91 -31 -154t-89 -95.5t-141 -32.5zM256 727h-46q-9 36 1 61t30.5 38t41.5 13q24 0 43 -9.5t34.5 -22t29.5 -22t29 -9.5q14 0 21.5 12.5t2.5 35.5h52
q6 -29 -3 -52.5t-30 -37.5t-51 -14q-22 0 -40 9.5t-33.5 21.5t-29.5 21.5t-26 9.5q-13 0 -22.5 -13t-3.5 -42z" />
    <glyph glyph-name="uni1E78" unicode="&#x1e78;" horiz-adv-x="692" 
d="M346 -10q-124 0 -192.5 73t-68.5 209v395h72v-399q0 -107 48 -158.5t141 -51.5t142 51.5t49 158.5v399h70v-395q0 -91 -31 -154t-89 -95.5t-141 -32.5zM256 727h-46q-9 36 1 61t30.5 38t41.5 13q24 0 43 -9.5t34.5 -22t29.5 -22t29 -9.5q14 0 21.5 12.5t2.5 35.5h52
q6 -29 -3 -52.5t-30 -37.5t-51 -14q-22 0 -40 9.5t-33.5 21.5t-29.5 21.5t-26 9.5q-13 0 -22.5 -13t-3.5 -42zM328 915l57 115h74l-83 -115h-48z" />
    <glyph glyph-name="V" unicode="V" horiz-adv-x="623" 
d="M276 0l-256 667h77l231 -606h-26l227 604l74 2l-256 -667h-71z" />
    <glyph glyph-name="W" unicode="W" horiz-adv-x="976" 
d="M239 0l-214 667h76l191 -605h-22l182 605h72l188 -614h-28l191 614h76l-215 -667h-73l-187 591h24l-187 -591h-74z" />
    <glyph glyph-name="Wacute" unicode="&#x1e82;" horiz-adv-x="976" 
d="M239 0l-214 667h76l191 -605h-22l182 605h72l188 -614h-28l191 614h76l-215 -667h-73l-187 591h24l-187 -591h-74zM471 732l57 115h74l-83 -115h-48z" />
    <glyph glyph-name="Wcircumflex" unicode="&#x174;" horiz-adv-x="976" 
d="M239 0l-214 667h76l191 -605h-22l182 605h72l188 -614h-28l191 614h76l-215 -667h-73l-187 591h24l-187 -591h-74zM378 719l81 120h61l80 -120h-46l-65 70l-65 -70h-46z" />
    <glyph glyph-name="Wdieresis" unicode="&#x1e84;" horiz-adv-x="976" 
d="M239 0l-214 667h76l191 -605h-22l182 605h72l188 -614h-28l191 614h76l-215 -667h-73l-187 591h24l-187 -591h-74zM523 726v79h79v-79h-79zM375 726v79h79v-79h-79z" />
    <glyph glyph-name="Wgrave" unicode="&#x1e80;" horiz-adv-x="976" 
d="M239 0l-214 667h76l191 -605h-22l182 605h72l188 -614h-28l191 614h76l-215 -667h-73l-187 591h24l-187 -591h-74zM470 721l-83 115h74l57 -115h-48z" />
    <glyph glyph-name="X" unicode="X" horiz-adv-x="589" 
d="M573 0h-86l-469 667h86zM285 388l196 279h88l-238 -339zM314 305l-214 -305h-88l243 347z" />
    <glyph glyph-name="Y" unicode="Y" horiz-adv-x="598" 
d="M261 0v306l-249 361h87l211 -312l-23 6l207 306h87l-260 -378l12 46v-335h-72z" />
    <glyph glyph-name="Yacute" unicode="&#xdd;" horiz-adv-x="598" 
d="M261 0v306l-249 361h87l211 -312l-23 6l207 306h87l-260 -378l12 46v-335h-72zM287 732l57 115h74l-83 -115h-48z" />
    <glyph glyph-name="Ycircumflex" unicode="&#x176;" horiz-adv-x="598" 
d="M261 0v306l-249 361h87l211 -312l-23 6l207 306h87l-260 -378l12 46v-335h-72zM194 719l81 120h61l80 -120h-46l-65 70l-65 -70h-46z" />
    <glyph glyph-name="Ydieresis" unicode="&#x178;" horiz-adv-x="598" 
d="M261 0v306l-249 361h87l211 -312l-23 6l207 306h87l-260 -378l12 46v-335h-72zM339 726v79h79v-79h-79zM191 726v79h79v-79h-79z" />
    <glyph glyph-name="uni1E8E" unicode="&#x1e8e;" horiz-adv-x="598" 
d="M261 0v306l-249 361h87l211 -312l-23 6l207 306h87l-260 -378l12 46v-335h-72zM265 704v79h79v-79h-79z" />
    <glyph glyph-name="uni1EF4" unicode="&#x1ef4;" horiz-adv-x="598" 
d="M261 0v306l-249 361h87l211 -312l-23 6l207 306h87l-260 -378l12 46v-335h-72zM259 -129v79h79v-79h-79z" />
    <glyph glyph-name="Ygrave" unicode="&#x1ef2;" horiz-adv-x="598" 
d="M261 0v306l-249 361h87l211 -312l-23 6l207 306h87l-260 -378l12 46v-335h-72zM286 721l-83 115h74l57 -115h-48z" />
    <glyph glyph-name="uni1EF6" unicode="&#x1ef6;" horiz-adv-x="598" 
d="M261 0v306l-249 361h87l211 -312l-23 6l207 306h87l-260 -378l12 46v-335h-72zM280 702v52q21 1 29.5 9t8.5 15q0 13 -12.5 19.5t-35.5 6.5q-7 0 -14 -0.5t-13 -1.5v43q8 2 15.5 2.5t15.5 0.5q21 0 42 -6t35.5 -20.5t14.5 -41.5q0 -19 -12.5 -34t-40.5 -20v-24h-33z" />
    <glyph glyph-name="uni0232" unicode="&#x232;" horiz-adv-x="598" 
d="M261 0v306l-249 361h87l211 -312l-23 6l207 306h87l-260 -378l12 46v-335h-72zM188 716v53h234v-53h-234z" />
    <glyph glyph-name="uni1EF8" unicode="&#x1ef8;" horiz-adv-x="598" 
d="M261 0v306l-249 361h87l211 -312l-23 6l207 306h87l-260 -378l12 46v-335h-72zM215 727h-46q-9 36 1 61t30.5 38t41.5 13q24 0 43 -9.5t34.5 -22t29.5 -22t29 -9.5q14 0 21.5 12.5t2.5 35.5h52q6 -29 -3 -52.5t-30 -37.5t-51 -14q-22 0 -40 9.5t-33.5 21.5t-29.5 21.5
t-26 9.5q-13 0 -22.5 -13t-3.5 -42z" />
    <glyph glyph-name="Z" unicode="Z" horiz-adv-x="609" 
d="M64 0v63l414 569l14 -33h-418v68h465v-61l-405 -565l-9 27h414v-68h-475z" />
    <glyph glyph-name="Zacute" unicode="&#x179;" horiz-adv-x="609" 
d="M64 0v63l414 569l14 -33h-418v68h465v-61l-405 -565l-9 27h414v-68h-475zM287 732l57 115h74l-83 -115h-48z" />
    <glyph glyph-name="Zcaron" unicode="&#x17d;" horiz-adv-x="609" 
d="M64 0v63l414 569l14 -33h-418v68h465v-61l-405 -565l-9 27h414v-68h-475zM285 704l-81 120h56l45 -70l45 70h56l-80 -120h-41z" />
    <glyph glyph-name="Zdotaccent" unicode="&#x17b;" horiz-adv-x="609" 
d="M64 0v63l414 569l14 -33h-418v68h465v-61l-405 -565l-9 27h414v-68h-475zM265 704v79h79v-79h-79z" />
    <glyph glyph-name="a" unicode="a" horiz-adv-x="554" 
d="M252 -15q-33 0 -66.5 7t-62 24t-46 46.5t-17.5 74.5q0 62 23.5 99.5t65 54t95.5 16.5q41 0 71 -5t53.5 -14.5t42.5 -21.5l14 -66q-23 17 -66.5 29.5t-95.5 12.5q-63 0 -97 -24t-34 -70q0 -37 20.5 -59t52 -31t64.5 -9q65 0 98.5 9.5t33.5 43.5v229q0 58 -34 85t-97 27
q-40 0 -84.5 -11.5t-76.5 -36.5v72q31 20 83 30.5t101 10.5q33 0 61 -6.5t50 -19t37.5 -32t24 -45t8.5 -57.5v-242q0 -53 -31.5 -79t-82 -34t-108.5 -8z" />
    <glyph glyph-name="aacute" unicode="&#xe1;" horiz-adv-x="554" 
d="M252 -15q-33 0 -66.5 7t-62 24t-46 46.5t-17.5 74.5q0 62 23.5 99.5t65 54t95.5 16.5q41 0 71 -5t53.5 -14.5t42.5 -21.5l14 -66q-23 17 -66.5 29.5t-95.5 12.5q-63 0 -97 -24t-34 -70q0 -37 20.5 -59t52 -31t64.5 -9q65 0 98.5 9.5t33.5 43.5v229q0 58 -34 85t-97 27
q-40 0 -84.5 -11.5t-76.5 -36.5v72q31 20 83 30.5t101 10.5q33 0 61 -6.5t50 -19t37.5 -32t24 -45t8.5 -57.5v-242q0 -53 -31.5 -79t-82 -34t-108.5 -8zM265 564l57 115h74l-83 -115h-48z" />
    <glyph glyph-name="abreve" unicode="&#x103;" horiz-adv-x="554" 
d="M252 -15q-33 0 -66.5 7t-62 24t-46 46.5t-17.5 74.5q0 62 23.5 99.5t65 54t95.5 16.5q41 0 71 -5t53.5 -14.5t42.5 -21.5l14 -66q-23 17 -66.5 29.5t-95.5 12.5q-63 0 -97 -24t-34 -70q0 -37 20.5 -59t52 -31t64.5 -9q65 0 98.5 9.5t33.5 43.5v229q0 58 -34 85t-97 27
q-40 0 -84.5 -11.5t-76.5 -36.5v72q31 20 83 30.5t101 10.5q33 0 61 -6.5t50 -19t37.5 -32t24 -45t8.5 -57.5v-242q0 -53 -31.5 -79t-82 -34t-108.5 -8zM291 545q-32 0 -59.5 13t-47 38.5t-28.5 62.5h52q11 -30 32 -46t51 -16t50.5 16t32.5 46h52q-7 -37 -26.5 -62.5
t-47.5 -38.5t-61 -13z" />
    <glyph glyph-name="uni1EAF" unicode="&#x1eaf;" horiz-adv-x="554" 
d="M252 -15q-33 0 -66.5 7t-62 24t-46 46.5t-17.5 74.5q0 62 23.5 99.5t65 54t95.5 16.5q41 0 71 -5t53.5 -14.5t42.5 -21.5l14 -66q-23 17 -66.5 29.5t-95.5 12.5q-63 0 -97 -24t-34 -70q0 -37 20.5 -59t52 -31t64.5 -9q65 0 98.5 9.5t33.5 43.5v229q0 58 -34 85t-97 27
q-40 0 -84.5 -11.5t-76.5 -36.5v72q31 20 83 30.5t101 10.5q33 0 61 -6.5t50 -19t37.5 -32t24 -45t8.5 -57.5v-242q0 -53 -31.5 -79t-82 -34t-108.5 -8zM291 545q-32 0 -59.5 13t-47 38.5t-28.5 62.5h52q11 -30 32 -46t51 -16t50.5 16t32.5 46h52q-7 -37 -26.5 -62.5
t-47.5 -38.5t-61 -13zM259 670l57 115h74l-83 -115h-48z" />
    <glyph glyph-name="uni1EB7" unicode="&#x1eb7;" horiz-adv-x="534" 
d="M241 -129v79h79v-79h-79zM272 539q-49 0 -77 27.5t-28 76.5h48q0 -30 13.5 -43t43.5 -13t43.5 13t13.5 43h48q0 -49 -27.5 -76.5t-77.5 -27.5zM252 -15q-33 0 -66.5 7t-62 24t-46 46.5t-17.5 74.5q0 62 23.5 99.5t65 54t95.5 16.5q41 0 71 -5t53.5 -14.5t42.5 -21.5
l14 -66q-23 17 -66.5 29.5t-95.5 12.5q-63 0 -97 -24t-34 -70q0 -37 20.5 -59t52 -31t64.5 -9q65 0 98.5 9.5t33.5 43.5v229q0 58 -34 85t-97 27q-40 0 -84.5 -11.5t-76.5 -36.5v72q31 20 83 30.5t101 10.5q33 0 61 -6.5t50 -19t37.5 -32t24 -45t8.5 -57.5v-242
q0 -53 -31.5 -79t-82 -34t-108.5 -8z" />
    <glyph glyph-name="uni1EB1" unicode="&#x1eb1;" horiz-adv-x="554" 
d="M252 -15q-33 0 -66.5 7t-62 24t-46 46.5t-17.5 74.5q0 62 23.5 99.5t65 54t95.5 16.5q41 0 71 -5t53.5 -14.5t42.5 -21.5l14 -66q-23 17 -66.5 29.5t-95.5 12.5q-63 0 -97 -24t-34 -70q0 -37 20.5 -59t52 -31t64.5 -9q65 0 98.5 9.5t33.5 43.5v229q0 58 -34 85t-97 27
q-40 0 -84.5 -11.5t-76.5 -36.5v72q31 20 83 30.5t101 10.5q33 0 61 -6.5t50 -19t37.5 -32t24 -45t8.5 -57.5v-242q0 -53 -31.5 -79t-82 -34t-108.5 -8zM291 545q-32 0 -59.5 13t-47 38.5t-28.5 62.5h52q11 -30 32 -46t51 -16t50.5 16t32.5 46h52q-7 -37 -26.5 -62.5
t-47.5 -38.5t-61 -13zM269 664l-83 115h73l57 -115h-47z" />
    <glyph glyph-name="uni1EB3" unicode="&#x1eb3;" horiz-adv-x="554" 
d="M252 -15q-33 0 -66.5 7t-62 24t-46 46.5t-17.5 74.5q0 62 23.5 99.5t65 54t95.5 16.5q41 0 71 -5t53.5 -14.5t42.5 -21.5l14 -66q-23 17 -66.5 29.5t-95.5 12.5q-63 0 -97 -24t-34 -70q0 -37 20.5 -59t52 -31t64.5 -9q65 0 98.5 9.5t33.5 43.5v229q0 58 -34 85t-97 27
q-40 0 -84.5 -11.5t-76.5 -36.5v72q31 20 83 30.5t101 10.5q33 0 61 -6.5t50 -19t37.5 -32t24 -45t8.5 -57.5v-242q0 -53 -31.5 -79t-82 -34t-108.5 -8zM282 545q-32 0 -59.5 13t-47 38.5t-28.5 62.5h52q11 -30 32 -46t51 -16t50.5 16t32.5 46h52q-7 -37 -26.5 -62.5
t-47.5 -38.5t-61 -13zM257 664v52q21 1 29.5 9t8.5 15q0 13 -12.5 19.5t-35.5 6.5q-7 0 -14 -0.5t-13 -1.5v43q8 2 15.5 2.5t15.5 0.5q21 0 42 -6t35.5 -20.5t14.5 -41.5q0 -19 -12.5 -34t-40.5 -20v-24h-33z" />
    <glyph glyph-name="uni1EB5" unicode="&#x1eb5;" horiz-adv-x="554" 
d="M252 -15q-33 0 -66.5 7t-62 24t-46 46.5t-17.5 74.5q0 62 23.5 99.5t65 54t95.5 16.5q41 0 71 -5t53.5 -14.5t42.5 -21.5l14 -66q-23 17 -66.5 29.5t-95.5 12.5q-63 0 -97 -24t-34 -70q0 -37 20.5 -59t52 -31t64.5 -9q65 0 98.5 9.5t33.5 43.5v229q0 58 -34 85t-97 27
q-40 0 -84.5 -11.5t-76.5 -36.5v72q31 20 83 30.5t101 10.5q33 0 61 -6.5t50 -19t37.5 -32t24 -45t8.5 -57.5v-242q0 -53 -31.5 -79t-82 -34t-108.5 -8zM291 545q-32 0 -59.5 13t-47 38.5t-28.5 62.5h52q11 -30 32 -46t51 -16t50.5 16t32.5 46h52q-7 -37 -26.5 -62.5
t-47.5 -38.5t-61 -13zM196 694h-46q-9 36 1 61t30.5 38t41.5 13q24 0 43 -9.5t34.5 -22t29.5 -22t29 -9.5q14 0 21.5 12.5t2.5 35.5h52q6 -29 -3 -52.5t-30 -37.5t-51 -14q-22 0 -40 9.5t-33.5 21.5t-29.5 21.5t-26 9.5q-13 0 -22.5 -13t-3.5 -42z" />
    <glyph glyph-name="uni01CE" unicode="&#x1ce;" horiz-adv-x="554" 
d="M252 -15q-33 0 -66.5 7t-62 24t-46 46.5t-17.5 74.5q0 62 23.5 99.5t65 54t95.5 16.5q41 0 71 -5t53.5 -14.5t42.5 -21.5l14 -66q-23 17 -66.5 29.5t-95.5 12.5q-63 0 -97 -24t-34 -70q0 -37 20.5 -59t52 -31t64.5 -9q65 0 98.5 9.5t33.5 43.5v229q0 58 -34 85t-97 27
q-40 0 -84.5 -11.5t-76.5 -36.5v72q31 20 83 30.5t101 10.5q33 0 61 -6.5t50 -19t37.5 -32t24 -45t8.5 -57.5v-242q0 -53 -31.5 -79t-82 -34t-108.5 -8zM271 564l-81 120h56l45 -70l45 70h56l-80 -120h-41z" />
    <glyph glyph-name="acircumflex" unicode="&#xe2;" horiz-adv-x="554" 
d="M252 -15q-33 0 -66.5 7t-62 24t-46 46.5t-17.5 74.5q0 62 23.5 99.5t65 54t95.5 16.5q41 0 71 -5t53.5 -14.5t42.5 -21.5l14 -66q-23 17 -66.5 29.5t-95.5 12.5q-63 0 -97 -24t-34 -70q0 -37 20.5 -59t52 -31t64.5 -9q65 0 98.5 9.5t33.5 43.5v229q0 58 -34 85t-97 27
q-40 0 -84.5 -11.5t-76.5 -36.5v72q31 20 83 30.5t101 10.5q33 0 61 -6.5t50 -19t37.5 -32t24 -45t8.5 -57.5v-242q0 -53 -31.5 -79t-82 -34t-108.5 -8zM180 564l81 120h61l80 -120h-46l-65 70l-65 -70h-46z" />
    <glyph glyph-name="uni1EA5" unicode="&#x1ea5;" horiz-adv-x="554" 
d="M252 -15q-33 0 -66.5 7t-62 24t-46 46.5t-17.5 74.5q0 62 23.5 99.5t65 54t95.5 16.5q41 0 71 -5t53.5 -14.5t42.5 -21.5l14 -66q-23 17 -66.5 29.5t-95.5 12.5q-63 0 -97 -24t-34 -70q0 -37 20.5 -59t52 -31t64.5 -9q65 0 98.5 9.5t33.5 43.5v229q0 58 -34 85t-97 27
q-40 0 -84.5 -11.5t-76.5 -36.5v72q31 20 83 30.5t101 10.5q33 0 61 -6.5t50 -19t37.5 -32t24 -45t8.5 -57.5v-242q0 -53 -31.5 -79t-82 -34t-108.5 -8zM183 564l81 120h61l80 -120h-46l-65 70l-65 -70h-46zM377 636l57 115h74l-83 -115h-48z" />
    <glyph glyph-name="uni1EAD" unicode="&#x1ead;" horiz-adv-x="534" 
d="M241 -129v79h79v-79h-79zM252 -15q-33 0 -66.5 7t-62 24t-46 46.5t-17.5 74.5q0 62 23.5 99.5t65 54t95.5 16.5q41 0 71 -5t53.5 -14.5t42.5 -21.5l14 -66q-23 17 -66.5 29.5t-95.5 12.5q-63 0 -97 -24t-34 -70q0 -37 20.5 -59t52 -31t64.5 -9q65 0 98.5 9.5t33.5 43.5
v229q0 58 -34 85t-97 27q-40 0 -84.5 -11.5t-76.5 -36.5v72q31 20 83 30.5t101 10.5q33 0 61 -6.5t50 -19t37.5 -32t24 -45t8.5 -57.5v-242q0 -53 -31.5 -79t-82 -34t-108.5 -8zM180 564l81 120h61l80 -120h-46l-65 70l-65 -70h-46z" />
    <glyph glyph-name="uni1EA7" unicode="&#x1ea7;" horiz-adv-x="554" 
d="M252 -15q-33 0 -66.5 7t-62 24t-46 46.5t-17.5 74.5q0 62 23.5 99.5t65 54t95.5 16.5q41 0 71 -5t53.5 -14.5t42.5 -21.5l14 -66q-23 17 -66.5 29.5t-95.5 12.5q-63 0 -97 -24t-34 -70q0 -37 20.5 -59t52 -31t64.5 -9q65 0 98.5 9.5t33.5 43.5v229q0 58 -34 85t-97 27
q-40 0 -84.5 -11.5t-76.5 -36.5v72q31 20 83 30.5t101 10.5q33 0 61 -6.5t50 -19t37.5 -32t24 -45t8.5 -57.5v-242q0 -53 -31.5 -79t-82 -34t-108.5 -8zM180 564l81 120h61l80 -120h-46l-65 70l-65 -70h-46zM135 630l-83 115h74l57 -115h-48z" />
    <glyph glyph-name="uni1EA9" unicode="&#x1ea9;" horiz-adv-x="554" 
d="M252 -15q-33 0 -66.5 7t-62 24t-46 46.5t-17.5 74.5q0 62 23.5 99.5t65 54t95.5 16.5q41 0 71 -5t53.5 -14.5t42.5 -21.5l14 -66q-23 17 -66.5 29.5t-95.5 12.5q-63 0 -97 -24t-34 -70q0 -37 20.5 -59t52 -31t64.5 -9q65 0 98.5 9.5t33.5 43.5v229q0 58 -34 85t-97 27
q-40 0 -84.5 -11.5t-76.5 -36.5v72q31 20 83 30.5t101 10.5q33 0 61 -6.5t50 -19t37.5 -32t24 -45t8.5 -57.5v-242q0 -53 -31.5 -79t-82 -34t-108.5 -8zM174 559l81 120h61l80 -120h-46l-65 70l-65 -70h-46zM401 611v52q21 1 29.5 9t8.5 15q0 13 -12.5 19.5t-35.5 6.5
q-7 0 -14 -0.5t-13 -1.5v43q8 2 15.5 2.5t15.5 0.5q21 0 42 -6t35.5 -20.5t14.5 -41.5q0 -19 -12.5 -34t-40.5 -20v-24h-33z" />
    <glyph glyph-name="uni1EAB" unicode="&#x1eab;" horiz-adv-x="554" 
d="M252 -15q-33 0 -66.5 7t-62 24t-46 46.5t-17.5 74.5q0 62 23.5 99.5t65 54t95.5 16.5q41 0 71 -5t53.5 -14.5t42.5 -21.5l14 -66q-23 17 -66.5 29.5t-95.5 12.5q-63 0 -97 -24t-34 -70q0 -37 20.5 -59t52 -31t64.5 -9q65 0 98.5 9.5t33.5 43.5v229q0 58 -34 85t-97 27
q-40 0 -84.5 -11.5t-76.5 -36.5v72q31 20 83 30.5t101 10.5q33 0 61 -6.5t50 -19t37.5 -32t24 -45t8.5 -57.5v-242q0 -53 -31.5 -79t-82 -34t-108.5 -8zM180 544l81 120h61l80 -120h-46l-65 70l-65 -70h-46zM195 699h-46q-9 36 1 61t30.5 38t41.5 13q24 0 43 -9.5t34.5 -22
t29.5 -22t29 -9.5q14 0 21.5 12.5t2.5 35.5h52q6 -29 -3 -52.5t-30 -37.5t-51 -14q-22 0 -40 9.5t-33.5 21.5t-29.5 21.5t-26 9.5q-13 0 -22.5 -13t-3.5 -42z" />
    <glyph glyph-name="uni0201" unicode="&#x201;" horiz-adv-x="554" 
d="M252 -15q-33 0 -66.5 7t-62 24t-46 46.5t-17.5 74.5q0 62 23.5 99.5t65 54t95.5 16.5q41 0 71 -5t53.5 -14.5t42.5 -21.5l14 -66q-23 17 -66.5 29.5t-95.5 12.5q-63 0 -97 -24t-34 -70q0 -37 20.5 -59t52 -31t64.5 -9q65 0 98.5 9.5t33.5 43.5v229q0 58 -34 85t-97 27
q-40 0 -84.5 -11.5t-76.5 -36.5v72q31 20 83 30.5t101 10.5q33 0 61 -6.5t50 -19t37.5 -32t24 -45t8.5 -57.5v-242q0 -53 -31.5 -79t-82 -34t-108.5 -8zM229 564l-83 115h73l57 -115h-47zM363 564l-83 115h73l57 -115h-47z" />
    <glyph glyph-name="adieresis" unicode="&#xe4;" horiz-adv-x="554" 
d="M252 -15q-33 0 -66.5 7t-62 24t-46 46.5t-17.5 74.5q0 62 23.5 99.5t65 54t95.5 16.5q41 0 71 -5t53.5 -14.5t42.5 -21.5l14 -66q-23 17 -66.5 29.5t-95.5 12.5q-63 0 -97 -24t-34 -70q0 -37 20.5 -59t52 -31t64.5 -9q65 0 98.5 9.5t33.5 43.5v229q0 58 -34 85t-97 27
q-40 0 -84.5 -11.5t-76.5 -36.5v72q31 20 83 30.5t101 10.5q33 0 61 -6.5t50 -19t37.5 -32t24 -45t8.5 -57.5v-242q0 -53 -31.5 -79t-82 -34t-108.5 -8zM325 564v79h79v-79h-79zM177 564v79h79v-79h-79z" />
    <glyph glyph-name="uni1EA1" unicode="&#x1ea1;" horiz-adv-x="534" 
d="M241 -129v79h79v-79h-79zM252 -15q-33 0 -66.5 7t-62 24t-46 46.5t-17.5 74.5q0 62 23.5 99.5t65 54t95.5 16.5q41 0 71 -5t53.5 -14.5t42.5 -21.5l14 -66q-23 17 -66.5 29.5t-95.5 12.5q-63 0 -97 -24t-34 -70q0 -37 20.5 -59t52 -31t64.5 -9q65 0 98.5 9.5t33.5 43.5
v229q0 58 -34 85t-97 27q-40 0 -84.5 -11.5t-76.5 -36.5v72q31 20 83 30.5t101 10.5q33 0 61 -6.5t50 -19t37.5 -32t24 -45t8.5 -57.5v-242q0 -53 -31.5 -79t-82 -34t-108.5 -8z" />
    <glyph glyph-name="agrave" unicode="&#xe0;" horiz-adv-x="554" 
d="M252 -15q-33 0 -66.5 7t-62 24t-46 46.5t-17.5 74.5q0 62 23.5 99.5t65 54t95.5 16.5q41 0 71 -5t53.5 -14.5t42.5 -21.5l14 -66q-23 17 -66.5 29.5t-95.5 12.5q-63 0 -97 -24t-34 -70q0 -37 20.5 -59t52 -31t64.5 -9q65 0 98.5 9.5t33.5 43.5v229q0 58 -34 85t-97 27
q-40 0 -84.5 -11.5t-76.5 -36.5v72q31 20 83 30.5t101 10.5q33 0 61 -6.5t50 -19t37.5 -32t24 -45t8.5 -57.5v-242q0 -53 -31.5 -79t-82 -34t-108.5 -8zM269 564l-83 115h73l57 -115h-47z" />
    <glyph glyph-name="uni1EA3" unicode="&#x1ea3;" horiz-adv-x="554" 
d="M252 -15q-33 0 -66.5 7t-62 24t-46 46.5t-17.5 74.5q0 62 23.5 99.5t65 54t95.5 16.5q41 0 71 -5t53.5 -14.5t42.5 -21.5l14 -66q-23 17 -66.5 29.5t-95.5 12.5q-63 0 -97 -24t-34 -70q0 -37 20.5 -59t52 -31t64.5 -9q65 0 98.5 9.5t33.5 43.5v229q0 58 -34 85t-97 27
q-40 0 -84.5 -11.5t-76.5 -36.5v72q31 20 83 30.5t101 10.5q33 0 61 -6.5t50 -19t37.5 -32t24 -45t8.5 -57.5v-242q0 -53 -31.5 -79t-82 -34t-108.5 -8zM266 562v52q21 1 29.5 9t8.5 15q0 13 -12.5 19.5t-35.5 6.5q-7 0 -14 -0.5t-13 -1.5v43q8 2 15.5 2.5t15.5 0.5
q21 0 42 -6t35.5 -20.5t14.5 -41.5q0 -19 -12.5 -34t-40.5 -20v-24h-33z" />
    <glyph glyph-name="uni0203" unicode="&#x203;" horiz-adv-x="554" 
d="M291 649q33 0 61 -13t47.5 -38t26.5 -63h-52q-12 30 -32.5 46t-50.5 16t-51 -16t-32 -46h-52q9 38 28.5 63t47 38t59.5 13zM252 -15q-33 0 -66.5 7t-62 24t-46 46.5t-17.5 74.5q0 62 23.5 99.5t65 54t95.5 16.5q41 0 71 -5t53.5 -14.5t42.5 -21.5l14 -66
q-23 17 -66.5 29.5t-95.5 12.5q-63 0 -97 -24t-34 -70q0 -37 20.5 -59t52 -31t64.5 -9q65 0 98.5 9.5t33.5 43.5v229q0 58 -34 85t-97 27q-40 0 -84.5 -11.5t-76.5 -36.5v72q31 20 83 30.5t101 10.5q33 0 61 -6.5t50 -19t37.5 -32t24 -45t8.5 -57.5v-242q0 -53 -31.5 -79
t-82 -34t-108.5 -8z" />
    <glyph glyph-name="amacron" unicode="&#x101;" horiz-adv-x="554" 
d="M252 -15q-33 0 -66.5 7t-62 24t-46 46.5t-17.5 74.5q0 62 23.5 99.5t65 54t95.5 16.5q41 0 71 -5t53.5 -14.5t42.5 -21.5l14 -66q-23 17 -66.5 29.5t-95.5 12.5q-63 0 -97 -24t-34 -70q0 -37 20.5 -59t52 -31t64.5 -9q65 0 98.5 9.5t33.5 43.5v229q0 58 -34 85t-97 27
q-40 0 -84.5 -11.5t-76.5 -36.5v72q31 20 83 30.5t101 10.5q33 0 61 -6.5t50 -19t37.5 -32t24 -45t8.5 -57.5v-242q0 -53 -31.5 -79t-82 -34t-108.5 -8zM174 576v53h234v-53h-234z" />
    <glyph glyph-name="aogonek" unicode="&#x105;" horiz-adv-x="554" 
d="M252 -15q-33 0 -66.5 7t-62 24t-46 46.5t-17.5 74.5q0 62 23.5 99.5t65 54t95.5 16.5q41 0 71 -5t53.5 -14.5t42.5 -21.5l14 -66q-23 17 -66.5 29.5t-95.5 12.5q-63 0 -97 -24t-34 -70q0 -37 20.5 -59t52 -31t64.5 -9q65 0 98.5 9.5t33.5 43.5v229q0 58 -34 85t-97 27
q-40 0 -84.5 -11.5t-76.5 -36.5v72q31 20 83 30.5t101 10.5q33 0 61 -6.5t50 -19t37.5 -32t24 -45t8.5 -57.5v-242q0 -53 -31.5 -79t-82 -34t-108.5 -8zM383 -143q-40 0 -64 21.5t-24 61.5q0 25 18.5 52t54.5 42l78 -4q-40 -19 -66 -41t-26 -44q0 -18 9 -26t25 -8
q20 0 34.5 10.5t20.5 16.5v-63q-12 -7 -26.5 -12.5t-33.5 -5.5z" />
    <glyph glyph-name="aring" unicode="&#xe5;" horiz-adv-x="554" 
d="M252 -15q-33 0 -66.5 7t-62 24t-46 46.5t-17.5 74.5q0 62 23.5 99.5t65 54t95.5 16.5q41 0 71 -5t53.5 -14.5t42.5 -21.5l14 -66q-23 17 -66.5 29.5t-95.5 12.5q-63 0 -97 -24t-34 -70q0 -37 20.5 -59t52 -31t64.5 -9q65 0 98.5 9.5t33.5 43.5v229q0 58 -34 85t-97 27
q-40 0 -84.5 -11.5t-76.5 -36.5v72q31 20 83 30.5t101 10.5q33 0 61 -6.5t50 -19t37.5 -32t24 -45t8.5 -57.5v-242q0 -53 -31.5 -79t-82 -34t-108.5 -8zM291 535q-55 0 -78 22.5t-23 69.5t23 69.5t78 22.5q54 0 77.5 -22.5t23.5 -69.5t-23.5 -69.5t-77.5 -22.5zM291 578
q32 0 43 11.5t11 37.5t-11 37t-43 11t-43.5 -11t-11.5 -37t11.5 -37.5t43.5 -11.5z" />
    <glyph glyph-name="aringacute" unicode="&#x1fb;" horiz-adv-x="554" 
d="M252 -15q-33 0 -66.5 7t-62 24t-46 46.5t-17.5 74.5q0 62 23.5 99.5t65 54t95.5 16.5q41 0 71 -5t53.5 -14.5t42.5 -21.5l14 -66q-23 17 -66.5 29.5t-95.5 12.5q-63 0 -97 -24t-34 -70q0 -37 20.5 -59t52 -31t64.5 -9q65 0 98.5 9.5t33.5 43.5v229q0 58 -34 85t-97 27
q-40 0 -84.5 -11.5t-76.5 -36.5v72q31 20 83 30.5t101 10.5q33 0 61 -6.5t50 -19t37.5 -32t24 -45t8.5 -57.5v-242q0 -53 -31.5 -79t-82 -34t-108.5 -8zM291 535q-55 0 -78 22.5t-23 69.5t23 69.5t78 22.5q54 0 77.5 -22.5t23.5 -69.5t-23.5 -69.5t-77.5 -22.5zM291 578
q32 0 43 11.5t11 37.5t-11 37t-43 11t-43.5 -11t-11.5 -37t11.5 -37.5t43.5 -11.5zM265 774l57 115h74l-83 -115h-48z" />
    <glyph glyph-name="atilde" unicode="&#xe3;" horiz-adv-x="554" 
d="M252 -15q-33 0 -66.5 7t-62 24t-46 46.5t-17.5 74.5q0 62 23.5 99.5t65 54t95.5 16.5q41 0 71 -5t53.5 -14.5t42.5 -21.5l14 -66q-23 17 -66.5 29.5t-95.5 12.5q-63 0 -97 -24t-34 -70q0 -37 20.5 -59t52 -31t64.5 -9q65 0 98.5 9.5t33.5 43.5v229q0 58 -34 85t-97 27
q-40 0 -84.5 -11.5t-76.5 -36.5v72q31 20 83 30.5t101 10.5q33 0 61 -6.5t50 -19t37.5 -32t24 -45t8.5 -57.5v-242q0 -53 -31.5 -79t-82 -34t-108.5 -8zM196 544h-46q-9 36 1 61t30.5 38t41.5 13q24 0 43 -9.5t34.5 -22t29.5 -22t29 -9.5q14 0 21.5 12.5t2.5 35.5h52
q6 -29 -3 -52.5t-30 -37.5t-51 -14q-22 0 -40 9.5t-33.5 21.5t-29.5 21.5t-26 9.5q-13 0 -22.5 -13t-3.5 -42z" />
    <glyph glyph-name="ae" unicode="&#xe6;" horiz-adv-x="893" 
d="M465 62q-30 -26 -77.5 -51.5t-118.5 -25.5q-62 0 -109 15.5t-73.5 49t-26.5 87.5q0 65 29 102t77 52.5t105 15.5q27 0 52 -4t47 -11.5t41 -19.5l14 -72q-23 17 -66.5 29.5t-95.5 12.5q-67 0 -99 -24.5t-32 -74.5q0 -35 20 -55.5t51.5 -29.5t65.5 -9q32 0 63 7t57.5 21
t42.5 33zM401 243v88q0 58 -34 85t-97 27q-40 0 -84.5 -11.5t-76.5 -36.5v72q31 20 83 30.5t101 10.5q33 0 61 -6.5t50 -19t37.5 -32t24 -45t8.5 -57.5v-111q0 -91 42.5 -138.5t119.5 -47.5q55 0 97.5 12t73.5 31v-74q-36 -17 -79.5 -26t-95.5 -9q-71 0 -123 28t-80 85
t-28 145zM401 250q0 129 58.5 193.5t160.5 64.5q80 0 128.5 -36t69.5 -97t20 -138h-401l5 66h349l-28 -10q-3 75 -37.5 112t-105.5 37q-49 0 -81.5 -18t-48.5 -62.5t-16 -124.5z" />
    <glyph glyph-name="aeacute" unicode="&#x1fd;" horiz-adv-x="893" 
d="M465 62q-30 -26 -77.5 -51.5t-118.5 -25.5q-62 0 -109 15.5t-73.5 49t-26.5 87.5q0 65 29 102t77 52.5t105 15.5q27 0 52 -4t47 -11.5t41 -19.5l14 -72q-23 17 -66.5 29.5t-95.5 12.5q-67 0 -99 -24.5t-32 -74.5q0 -35 20 -55.5t51.5 -29.5t65.5 -9q32 0 63 7t57.5 21
t42.5 33zM401 243v88q0 58 -34 85t-97 27q-40 0 -84.5 -11.5t-76.5 -36.5v72q31 20 83 30.5t101 10.5q33 0 61 -6.5t50 -19t37.5 -32t24 -45t8.5 -57.5v-111q0 -91 42.5 -138.5t119.5 -47.5q55 0 97.5 12t73.5 31v-74q-36 -17 -79.5 -26t-95.5 -9q-71 0 -123 28t-80 85
t-28 145zM401 250q0 129 58.5 193.5t160.5 64.5q80 0 128.5 -36t69.5 -97t20 -138h-401l5 66h349l-28 -10q-3 75 -37.5 112t-105.5 37q-49 0 -81.5 -18t-48.5 -62.5t-16 -124.5zM429 564l57 115h74l-83 -115h-48z" />
    <glyph glyph-name="b" unicode="b" 
d="M277 -15q-39 0 -74.5 4.5t-63 16t-43.5 30.5t-16 49v625h72v-268l-25 25q20 10 48.5 19t58.5 15t52 6q116 0 172 -67.5t56 -183.5q0 -86 -23 -139.5t-58.5 -82t-76.5 -39t-79 -10.5zM270 51q71 0 107 29t48.5 75.5t12.5 100.5q0 55 -15.5 96.5t-48.5 65t-88 23.5
q-31 0 -67 -8.5t-67 -26.5v-304q0 -22 19.5 -33t47 -14.5t51.5 -3.5z" />
    <glyph glyph-name="c" unicode="c" horiz-adv-x="492" 
d="M289 -8q-40 0 -81.5 10.5t-76 38t-55.5 78.5t-21 131t21 130.5t55.5 78.5t76 38.5t81.5 10.5q38 0 75.5 -7t72.5 -21v-69q-33 14 -68 21t-72 7q-89 0 -129.5 -45t-40.5 -144q0 -100 40.5 -144.5t129.5 -44.5q37 0 72 7t68 21v-70q-35 -13 -72.5 -20t-75.5 -7z" />
    <glyph glyph-name="cacute" unicode="&#x107;" horiz-adv-x="492" 
d="M289 -8q-40 0 -81.5 10.5t-76 38t-55.5 78.5t-21 131t21 130.5t55.5 78.5t76 38.5t81.5 10.5q38 0 75.5 -7t72.5 -21v-69q-33 14 -68 21t-72 7q-89 0 -129.5 -45t-40.5 -144q0 -100 40.5 -144.5t129.5 -44.5q37 0 72 7t68 21v-70q-35 -13 -72.5 -20t-75.5 -7zM240 564
l57 115h74l-83 -115h-48z" />
    <glyph glyph-name="ccaron" unicode="&#x10d;" horiz-adv-x="492" 
d="M289 -8q-40 0 -81.5 10.5t-76 38t-55.5 78.5t-21 131t21 130.5t55.5 78.5t76 38.5t81.5 10.5q38 0 75.5 -7t72.5 -21v-69q-33 14 -68 21t-72 7q-89 0 -129.5 -45t-40.5 -144q0 -100 40.5 -144.5t129.5 -44.5q37 0 72 7t68 21v-70q-35 -13 -72.5 -20t-75.5 -7zM246 564
l-81 120h56l45 -70l45 70h56l-80 -120h-41z" />
    <glyph glyph-name="ccedilla" unicode="&#xe7;" horiz-adv-x="492" 
d="M289 -8q-40 0 -81.5 10.5t-76 38t-55.5 78.5t-21 131t21 130.5t55.5 78.5t76 38.5t81.5 10.5q38 0 75.5 -7t72.5 -21v-69q-33 14 -68 21t-72 7q-89 0 -129.5 -45t-40.5 -144q0 -100 40.5 -144.5t129.5 -44.5q37 0 72 7t68 21v-70q-35 -13 -72.5 -20t-75.5 -7zM176 -120
l82 115h57l-63 -115h-76z" />
    <glyph glyph-name="uni1E09" unicode="&#x1e09;" horiz-adv-x="492" 
d="M289 -8q-40 0 -81.5 10.5t-76 38t-55.5 78.5t-21 131t21 130.5t55.5 78.5t76 38.5t81.5 10.5q38 0 75.5 -7t72.5 -21v-69q-33 14 -68 21t-72 7q-89 0 -129.5 -45t-40.5 -144q0 -100 40.5 -144.5t129.5 -44.5q37 0 72 7t68 21v-70q-35 -13 -72.5 -20t-75.5 -7zM176 -120
l82 115h57l-63 -115h-76zM240 564l57 115h74l-83 -115h-48z" />
    <glyph glyph-name="ccircumflex" unicode="&#x109;" horiz-adv-x="492" 
d="M289 -8q-40 0 -81.5 10.5t-76 38t-55.5 78.5t-21 131t21 130.5t55.5 78.5t76 38.5t81.5 10.5q38 0 75.5 -7t72.5 -21v-69q-33 14 -68 21t-72 7q-89 0 -129.5 -45t-40.5 -144q0 -100 40.5 -144.5t129.5 -44.5q37 0 72 7t68 21v-70q-35 -13 -72.5 -20t-75.5 -7zM155 564
l81 120h61l80 -120h-46l-65 70l-65 -70h-46z" />
    <glyph glyph-name="cdotaccent" unicode="&#x10b;" horiz-adv-x="492" 
d="M289 -8q-40 0 -81.5 10.5t-76 38t-55.5 78.5t-21 131t21 130.5t55.5 78.5t76 38.5t81.5 10.5q38 0 75.5 -7t72.5 -21v-69q-33 14 -68 21t-72 7q-89 0 -129.5 -45t-40.5 -144q0 -100 40.5 -144.5t129.5 -44.5q37 0 72 7t68 21v-70q-35 -13 -72.5 -20t-75.5 -7zM226 564v79
h79v-79h-79z" />
    <glyph glyph-name="d" unicode="d" 
d="M287 -15q-36 0 -76 10.5t-75.5 39t-58 82t-22.5 139.5q0 116 56.5 183.5t171.5 67.5q22 0 52 -6t59 -15t48 -19l-25 -25v268h72v-624q0 -28 -19.5 -47.5t-50.5 -31t-66 -17t-66 -5.5zM288 51q52 0 90.5 12t38.5 30v313q-31 18 -66.5 26.5t-67.5 8.5q-54 0 -87.5 -23.5
t-49 -65t-15.5 -96.5q0 -54 12 -100.5t46 -75.5t99 -29z" />
    <glyph glyph-name="eth" unicode="&#xf0;" horiz-adv-x="567" 
d="M285 -15q-117 0 -173.5 69.5t-56.5 193.5q0 130 59.5 195t168.5 65q50 0 85.5 -19.5t63.5 -52.5l14 -66q-23 32 -66.5 52t-95.5 20q-60 0 -94 -26t-48.5 -69.5t-14.5 -98.5q0 -88 35 -142.5t122 -54.5q43 0 78 16.5t56 64t22 139.5q0 66 -23 125.5t-61.5 112t-85.5 97
t-96 80.5v3h114q25 -24 62.5 -63t74.5 -91.5t62 -118.5t25 -145q0 -130 -57 -208t-170 -78zM173 549l-9 57l282 46l8 -57z" />
    <glyph glyph-name="dcaron" unicode="&#x10f;" 
d="M287 -15q-36 0 -76 10.5t-75.5 39t-58 82t-22.5 139.5q0 116 56.5 183.5t171.5 67.5q22 0 52 -6t59 -15t48 -19l-25 -25v268h72v-624q0 -28 -19.5 -47.5t-50.5 -31t-66 -17t-66 -5.5zM288 51q52 0 90.5 12t38.5 30v313q-31 18 -66.5 26.5t-67.5 8.5q-54 0 -87.5 -23.5
t-49 -65t-15.5 -96.5q0 -54 12 -100.5t46 -75.5t99 -29zM534 510l74 196h82l-84 -196h-72z" />
    <glyph glyph-name="dcroat" unicode="&#x111;" 
d="M287 -15q-36 0 -76 10.5t-75.5 39t-58 82t-22.5 139.5q0 116 56.5 183.5t171.5 67.5q22 0 52 -6t59 -15t48 -19l-25 -25v268h72v-624q0 -28 -19.5 -47.5t-50.5 -31t-66 -17t-66 -5.5zM288 51q52 0 90.5 12t38.5 30v313q-31 18 -66.5 26.5t-67.5 8.5q-54 0 -87.5 -23.5
t-49 -65t-15.5 -96.5q0 -54 12 -100.5t46 -75.5t99 -29zM310 577v53h244v-53h-244z" />
    <glyph glyph-name="uni1E0F" unicode="&#x1e0f;" 
d="M287 -15q-36 0 -76 10.5t-75.5 39t-58 82t-22.5 139.5q0 116 56.5 183.5t171.5 67.5q22 0 52 -6t59 -15t48 -19l-25 -25v268h72v-624q0 -28 -19.5 -47.5t-50.5 -31t-66 -17t-66 -5.5zM288 51q52 0 90.5 12t38.5 30v313q-31 18 -66.5 26.5t-67.5 8.5q-54 0 -87.5 -23.5
t-49 -65t-15.5 -96.5q0 -54 12 -100.5t46 -75.5t99 -29zM179 -119v53h234v-53h-234z" />
    <glyph glyph-name="uni01C6" unicode="&#x1c6;" horiz-adv-x="1024" 
d="M287 -15q-36 0 -76 10.5t-75.5 39t-58 82t-22.5 139.5q0 116 56.5 183.5t171.5 67.5q22 0 52 -6t59 -15t48 -19l-25 -25v268h72v-624q0 -28 -19.5 -47.5t-50.5 -31t-66 -17t-66 -5.5zM288 51q52 0 90.5 12t38.5 30v313q-31 18 -66.5 26.5t-67.5 8.5q-54 0 -87.5 -23.5
t-49 -65t-15.5 -96.5q0 -54 12 -100.5t46 -75.5t99 -29zM614 0v65l296 394l15 -22h-304v62h358v-63l-296 -391v19h296v-64h-365zM777 564l-81 120h56l45 -70l45 70h56l-80 -120h-41z" />
    <glyph glyph-name="e" unicode="e" horiz-adv-x="547" 
d="M286 -15q-71 0 -123 29.5t-80 88.5t-28 147q0 129 58.5 193.5t160.5 64.5q80 0 128.5 -36t69.5 -97t20 -138h-401l5 66h349l-28 -10q-3 75 -37.5 112t-105.5 37q-49 0 -81.5 -18t-48.5 -62.5t-16 -124.5q0 -91 42.5 -138.5t119.5 -47.5q37 0 68 5.5t57 15.5t46 22v-74
q-36 -17 -79.5 -26t-95.5 -9z" />
    <glyph glyph-name="eacute" unicode="&#xe9;" horiz-adv-x="547" 
d="M286 -15q-71 0 -123 29.5t-80 88.5t-28 147q0 129 58.5 193.5t160.5 64.5q80 0 128.5 -36t69.5 -97t20 -138h-401l5 66h349l-28 -10q-3 75 -37.5 112t-105.5 37q-49 0 -81.5 -18t-48.5 -62.5t-16 -124.5q0 -91 42.5 -138.5t119.5 -47.5q37 0 68 5.5t57 15.5t46 22v-74
q-36 -17 -79.5 -26t-95.5 -9zM257 564l57 115h74l-83 -115h-48z" />
    <glyph glyph-name="ebreve" unicode="&#x115;" horiz-adv-x="547" 
d="M286 -15q-71 0 -123 29.5t-80 88.5t-28 147q0 129 58.5 193.5t160.5 64.5q80 0 128.5 -36t69.5 -97t20 -138h-401l5 66h349l-28 -10q-3 75 -37.5 112t-105.5 37q-49 0 -81.5 -18t-48.5 -62.5t-16 -124.5q0 -91 42.5 -138.5t119.5 -47.5q37 0 68 5.5t57 15.5t46 22v-74
q-36 -17 -79.5 -26t-95.5 -9zM283 545q-32 0 -59.5 13t-47 38.5t-28.5 62.5h52q11 -30 32 -46t51 -16t50.5 16t32.5 46h52q-7 -37 -26.5 -62.5t-47.5 -38.5t-61 -13z" />
    <glyph glyph-name="ecaron" unicode="&#x11b;" horiz-adv-x="547" 
d="M286 -15q-71 0 -123 29.5t-80 88.5t-28 147q0 129 58.5 193.5t160.5 64.5q80 0 128.5 -36t69.5 -97t20 -138h-401l5 66h349l-28 -10q-3 75 -37.5 112t-105.5 37q-49 0 -81.5 -18t-48.5 -62.5t-16 -124.5q0 -91 42.5 -138.5t119.5 -47.5q37 0 68 5.5t57 15.5t46 22v-74
q-36 -17 -79.5 -26t-95.5 -9zM263 564l-81 120h56l45 -70l45 70h56l-80 -120h-41z" />
    <glyph glyph-name="uni1E1D" unicode="&#x1e1d;" horiz-adv-x="547" 
d="M286 -15q-71 0 -123 29.5t-80 88.5t-28 147q0 129 58.5 193.5t160.5 64.5q80 0 128.5 -36t69.5 -97t20 -138h-401l5 66h349l-28 -10q-3 75 -37.5 112t-105.5 37q-49 0 -81.5 -18t-48.5 -62.5t-16 -124.5q0 -91 42.5 -138.5t119.5 -47.5q37 0 68 5.5t57 15.5t46 22v-74
q-36 -17 -79.5 -26t-95.5 -9zM213 -120l82 115h57l-63 -115h-76zM283 545q-32 0 -59.5 13t-47 38.5t-28.5 62.5h52q11 -30 32 -46t51 -16t50.5 16t32.5 46h52q-7 -37 -26.5 -62.5t-47.5 -38.5t-61 -13z" />
    <glyph glyph-name="ecircumflex" unicode="&#xea;" horiz-adv-x="547" 
d="M286 -15q-71 0 -123 29.5t-80 88.5t-28 147q0 129 58.5 193.5t160.5 64.5q80 0 128.5 -36t69.5 -97t20 -138h-401l5 66h349l-28 -10q-3 75 -37.5 112t-105.5 37q-49 0 -81.5 -18t-48.5 -62.5t-16 -124.5q0 -91 42.5 -138.5t119.5 -47.5q37 0 68 5.5t57 15.5t46 22v-74
q-36 -17 -79.5 -26t-95.5 -9zM172 564l81 120h61l80 -120h-46l-65 70l-65 -70h-46z" />
    <glyph glyph-name="uni1EBF" unicode="&#x1ebf;" horiz-adv-x="547" 
d="M286 -15q-71 0 -123 29.5t-80 88.5t-28 147q0 129 58.5 193.5t160.5 64.5q80 0 128.5 -36t69.5 -97t20 -138h-401l5 66h349l-28 -10q-3 75 -37.5 112t-105.5 37q-49 0 -81.5 -18t-48.5 -62.5t-16 -124.5q0 -91 42.5 -138.5t119.5 -47.5q37 0 68 5.5t57 15.5t46 22v-74
q-36 -17 -79.5 -26t-95.5 -9zM175 564l81 120h61l80 -120h-46l-65 70l-65 -70h-46zM369 636l57 115h74l-83 -115h-48z" />
    <glyph glyph-name="uni1EC7" unicode="&#x1ec7;" horiz-adv-x="547" 
d="M286 -15q-71 0 -123 29.5t-80 88.5t-28 147q0 129 58.5 193.5t160.5 64.5q80 0 128.5 -36t69.5 -97t20 -138h-401l5 66h349l-28 -10q-3 75 -37.5 112t-105.5 37q-49 0 -81.5 -18t-48.5 -62.5t-16 -124.5q0 -91 42.5 -138.5t119.5 -47.5q37 0 68 5.5t57 15.5t46 22v-74
q-36 -17 -79.5 -26t-95.5 -9zM172 564l81 120h61l80 -120h-46l-65 70l-65 -70h-46zM243 -129v79h79v-79h-79z" />
    <glyph glyph-name="uni1EC1" unicode="&#x1ec1;" horiz-adv-x="547" 
d="M286 -15q-71 0 -123 29.5t-80 88.5t-28 147q0 129 58.5 193.5t160.5 64.5q80 0 128.5 -36t69.5 -97t20 -138h-401l5 66h349l-28 -10q-3 75 -37.5 112t-105.5 37q-49 0 -81.5 -18t-48.5 -62.5t-16 -124.5q0 -91 42.5 -138.5t119.5 -47.5q37 0 68 5.5t57 15.5t46 22v-74
q-36 -17 -79.5 -26t-95.5 -9zM172 564l81 120h61l80 -120h-46l-65 70l-65 -70h-46zM127 630l-83 115h74l57 -115h-48z" />
    <glyph glyph-name="uni1EC3" unicode="&#x1ec3;" horiz-adv-x="547" 
d="M286 -15q-71 0 -123 29.5t-80 88.5t-28 147q0 129 58.5 193.5t160.5 64.5q80 0 128.5 -36t69.5 -97t20 -138h-401l5 66h349l-28 -10q-3 75 -37.5 112t-105.5 37q-49 0 -81.5 -18t-48.5 -62.5t-16 -124.5q0 -91 42.5 -138.5t119.5 -47.5q37 0 68 5.5t57 15.5t46 22v-74
q-36 -17 -79.5 -26t-95.5 -9zM166 559l81 120h61l80 -120h-46l-65 70l-65 -70h-46zM393 611v52q21 1 29.5 9t8.5 15q0 13 -12.5 19.5t-35.5 6.5q-7 0 -14 -0.5t-13 -1.5v43q8 2 15.5 2.5t15.5 0.5q21 0 42 -6t35.5 -20.5t14.5 -41.5q0 -19 -12.5 -34t-40.5 -20v-24h-33z" />
    <glyph glyph-name="uni1EC5" unicode="&#x1ec5;" horiz-adv-x="547" 
d="M286 -15q-71 0 -123 29.5t-80 88.5t-28 147q0 129 58.5 193.5t160.5 64.5q80 0 128.5 -36t69.5 -97t20 -138h-401l5 66h349l-28 -10q-3 75 -37.5 112t-105.5 37q-49 0 -81.5 -18t-48.5 -62.5t-16 -124.5q0 -91 42.5 -138.5t119.5 -47.5q37 0 68 5.5t57 15.5t46 22v-74
q-36 -17 -79.5 -26t-95.5 -9zM172 544l81 120h61l80 -120h-46l-65 70l-65 -70h-46zM187 699h-46q-9 36 1 61t30.5 38t41.5 13q24 0 43 -9.5t34.5 -22t29.5 -22t29 -9.5q14 0 21.5 12.5t2.5 35.5h52q6 -29 -3 -52.5t-30 -37.5t-51 -14q-22 0 -40 9.5t-33.5 21.5t-29.5 21.5
t-26 9.5q-13 0 -22.5 -13t-3.5 -42z" />
    <glyph glyph-name="uni0205" unicode="&#x205;" horiz-adv-x="547" 
d="M286 -15q-71 0 -123 29.5t-80 88.5t-28 147q0 129 58.5 193.5t160.5 64.5q80 0 128.5 -36t69.5 -97t20 -138h-401l5 66h349l-28 -10q-3 75 -37.5 112t-105.5 37q-49 0 -81.5 -18t-48.5 -62.5t-16 -124.5q0 -91 42.5 -138.5t119.5 -47.5q37 0 68 5.5t57 15.5t46 22v-74
q-36 -17 -79.5 -26t-95.5 -9zM221 564l-83 115h73l57 -115h-47zM355 564l-83 115h73l57 -115h-47z" />
    <glyph glyph-name="edieresis" unicode="&#xeb;" horiz-adv-x="547" 
d="M286 -15q-71 0 -123 29.5t-80 88.5t-28 147q0 129 58.5 193.5t160.5 64.5q80 0 128.5 -36t69.5 -97t20 -138h-401l5 66h349l-28 -10q-3 75 -37.5 112t-105.5 37q-49 0 -81.5 -18t-48.5 -62.5t-16 -124.5q0 -91 42.5 -138.5t119.5 -47.5q37 0 68 5.5t57 15.5t46 22v-74
q-36 -17 -79.5 -26t-95.5 -9zM317 564v79h79v-79h-79zM169 564v79h79v-79h-79z" />
    <glyph glyph-name="edotaccent" unicode="&#x117;" horiz-adv-x="547" 
d="M286 -15q-71 0 -123 29.5t-80 88.5t-28 147q0 129 58.5 193.5t160.5 64.5q80 0 128.5 -36t69.5 -97t20 -138h-401l5 66h349l-28 -10q-3 75 -37.5 112t-105.5 37q-49 0 -81.5 -18t-48.5 -62.5t-16 -124.5q0 -91 42.5 -138.5t119.5 -47.5q37 0 68 5.5t57 15.5t46 22v-74
q-36 -17 -79.5 -26t-95.5 -9zM243 564v79h79v-79h-79z" />
    <glyph glyph-name="uni1EB9" unicode="&#x1eb9;" horiz-adv-x="547" 
d="M286 -15q-71 0 -123 29.5t-80 88.5t-28 147q0 129 58.5 193.5t160.5 64.5q80 0 128.5 -36t69.5 -97t20 -138h-401l5 66h349l-28 -10q-3 75 -37.5 112t-105.5 37q-49 0 -81.5 -18t-48.5 -62.5t-16 -124.5q0 -91 42.5 -138.5t119.5 -47.5q37 0 68 5.5t57 15.5t46 22v-74
q-36 -17 -79.5 -26t-95.5 -9zM243 -129v79h79v-79h-79z" />
    <glyph glyph-name="egrave" unicode="&#xe8;" horiz-adv-x="547" 
d="M286 -15q-71 0 -123 29.5t-80 88.5t-28 147q0 129 58.5 193.5t160.5 64.5q80 0 128.5 -36t69.5 -97t20 -138h-401l5 66h349l-28 -10q-3 75 -37.5 112t-105.5 37q-49 0 -81.5 -18t-48.5 -62.5t-16 -124.5q0 -91 42.5 -138.5t119.5 -47.5q37 0 68 5.5t57 15.5t46 22v-74
q-36 -17 -79.5 -26t-95.5 -9zM261 564l-83 115h73l57 -115h-47z" />
    <glyph glyph-name="uni1EBB" unicode="&#x1ebb;" horiz-adv-x="547" 
d="M286 -15q-71 0 -123 29.5t-80 88.5t-28 147q0 129 58.5 193.5t160.5 64.5q80 0 128.5 -36t69.5 -97t20 -138h-401l5 66h349l-28 -10q-3 75 -37.5 112t-105.5 37q-49 0 -81.5 -18t-48.5 -62.5t-16 -124.5q0 -91 42.5 -138.5t119.5 -47.5q37 0 68 5.5t57 15.5t46 22v-74
q-36 -17 -79.5 -26t-95.5 -9zM258 562v52q21 1 29.5 9t8.5 15q0 13 -12.5 19.5t-35.5 6.5q-7 0 -14 -0.5t-13 -1.5v43q8 2 15.5 2.5t15.5 0.5q21 0 42 -6t35.5 -20.5t14.5 -41.5q0 -19 -12.5 -34t-40.5 -20v-24h-33z" />
    <glyph glyph-name="uni0207" unicode="&#x207;" horiz-adv-x="547" 
d="M283 649q33 0 61 -13t47.5 -38t26.5 -63h-52q-12 30 -32.5 46t-50.5 16t-51 -16t-32 -46h-52q9 38 28.5 63t47 38t59.5 13zM286 -15q-71 0 -123 29.5t-80 88.5t-28 147q0 129 58.5 193.5t160.5 64.5q80 0 128.5 -36t69.5 -97t20 -138h-401l5 66h349l-28 -10
q-3 75 -37.5 112t-105.5 37q-49 0 -81.5 -18t-48.5 -62.5t-16 -124.5q0 -91 42.5 -138.5t119.5 -47.5q37 0 68 5.5t57 15.5t46 22v-74q-36 -17 -79.5 -26t-95.5 -9z" />
    <glyph glyph-name="emacron" unicode="&#x113;" horiz-adv-x="547" 
d="M286 -15q-71 0 -123 29.5t-80 88.5t-28 147q0 129 58.5 193.5t160.5 64.5q80 0 128.5 -36t69.5 -97t20 -138h-401l5 66h349l-28 -10q-3 75 -37.5 112t-105.5 37q-49 0 -81.5 -18t-48.5 -62.5t-16 -124.5q0 -91 42.5 -138.5t119.5 -47.5q37 0 68 5.5t57 15.5t46 22v-74
q-36 -17 -79.5 -26t-95.5 -9zM166 576v53h234v-53h-234z" />
    <glyph glyph-name="uni1E17" unicode="&#x1e17;" horiz-adv-x="547" 
d="M286 -15q-71 0 -123 29.5t-80 88.5t-28 147q0 129 58.5 193.5t160.5 64.5q80 0 128.5 -36t69.5 -97t20 -138h-401l5 66h349l-28 -10q-3 75 -37.5 112t-105.5 37q-49 0 -81.5 -18t-48.5 -62.5t-16 -124.5q0 -91 42.5 -138.5t119.5 -47.5q37 0 68 5.5t57 15.5t46 22v-74
q-36 -17 -79.5 -26t-95.5 -9zM166 576v53h234v-53h-234zM257 694l57 115h74l-83 -115h-48z" />
    <glyph glyph-name="uni1E15" unicode="&#x1e15;" horiz-adv-x="547" 
d="M286 -15q-71 0 -123 29.5t-80 88.5t-28 147q0 129 58.5 193.5t160.5 64.5q80 0 128.5 -36t69.5 -97t20 -138h-401l5 66h349l-28 -10q-3 75 -37.5 112t-105.5 37q-49 0 -81.5 -18t-48.5 -62.5t-16 -124.5q0 -91 42.5 -138.5t119.5 -47.5q37 0 68 5.5t57 15.5t46 22v-74
q-36 -17 -79.5 -26t-95.5 -9zM166 576v53h234v-53h-234zM261 694l-83 115h73l57 -115h-47z" />
    <glyph glyph-name="eogonek" unicode="&#x119;" horiz-adv-x="547" 
d="M286 -15q-71 0 -123 29.5t-80 88.5t-28 147q0 129 58.5 193.5t160.5 64.5q80 0 128.5 -36t69.5 -97t20 -138h-401l5 66h349l-28 -10q-3 75 -37.5 112t-105.5 37q-49 0 -81.5 -18t-48.5 -62.5t-16 -124.5q0 -91 42.5 -138.5t119.5 -47.5q37 0 68 5.5t57 15.5t46 22v-74
q-36 -17 -79.5 -26t-95.5 -9zM396 -151q-40 0 -64 21.5t-24 61.5q0 25 18.5 52t54.5 42l78 -4q-40 -19 -66 -41t-26 -44q0 -18 9 -26t25 -8q20 0 34.5 10.5t20.5 16.5v-63q-12 -7 -26.5 -12.5t-33.5 -5.5z" />
    <glyph glyph-name="uni1EBD" unicode="&#x1ebd;" horiz-adv-x="547" 
d="M286 -15q-71 0 -123 29.5t-80 88.5t-28 147q0 129 58.5 193.5t160.5 64.5q80 0 128.5 -36t69.5 -97t20 -138h-401l5 66h349l-28 -10q-3 75 -37.5 112t-105.5 37q-49 0 -81.5 -18t-48.5 -62.5t-16 -124.5q0 -91 42.5 -138.5t119.5 -47.5q37 0 68 5.5t57 15.5t46 22v-74
q-36 -17 -79.5 -26t-95.5 -9zM188 544h-46q-9 36 1 61t30.5 38t41.5 13q24 0 43 -9.5t34.5 -22t29.5 -22t29 -9.5q14 0 21.5 12.5t2.5 35.5h52q6 -29 -3 -52.5t-30 -37.5t-51 -14q-22 0 -40 9.5t-33.5 21.5t-29.5 21.5t-26 9.5q-13 0 -22.5 -13t-3.5 -42z" />
    <glyph glyph-name="uni0259" unicode="&#x259;" horiz-adv-x="547" 
d="M261 514q72 0 123.5 -29.5t79.5 -88.5t28 -147q0 -129 -58.5 -193.5t-160.5 -64.5q-80 0 -128 36t-69.5 97.5t-20.5 137.5h401l-5 -66h-349l28 10q3 -75 38 -112t105 -37q50 0 82 18t48 62.5t16 124.5q0 91 -42.5 138.5t-119.5 47.5q-36 0 -67.5 -5.5t-57 -15
t-46.5 -22.5v74q36 17 79.5 26t95.5 9z" />
    <glyph glyph-name="f" unicode="f" horiz-adv-x="375" 
d="M126 0v433h-86v66h86v27q0 55 12.5 89.5t32.5 54t42 28t42 10t32 1.5q14 0 26 -1.5t22 -4.5v-64q-7 2 -16 3t-20 1q-17 0 -35 -2t-33 -12.5t-24 -34t-9 -67.5v-28h137v-66h-137v-433h-72z" />
    <glyph glyph-name="g" unicode="g" 
d="M283 -15q-77 0 -127.5 30.5t-75.5 87t-25 133.5q0 86 23 139.5t59.5 82t80 39t84.5 10.5q47 0 89.5 -12.5t70 -39.5t27.5 -72v-404q0 -30 -9 -61t-32.5 -57.5t-66 -42.5t-109.5 -16q-43 0 -79 8t-63 15v68q16 -4 36.5 -9.5t45 -9.5t52.5 -4q68 0 100.5 16.5t42.5 41
t10 49.5v73l25 -25q-19 -10 -48 -19t-59 -15t-52 -6zM283 51q32 0 67.5 8.5t66.5 26.5v287q0 28 -15.5 42.5t-41.5 20t-56 5.5q-73 0 -110 -28.5t-50 -75.5t-13 -101q0 -82 35 -133.5t117 -51.5z" />
    <glyph glyph-name="gbreve" unicode="&#x11f;" 
d="M283 -15q-77 0 -127.5 30.5t-75.5 87t-25 133.5q0 86 23 139.5t59.5 82t80 39t84.5 10.5q47 0 89.5 -12.5t70 -39.5t27.5 -72v-404q0 -30 -9 -61t-32.5 -57.5t-66 -42.5t-109.5 -16q-43 0 -79 8t-63 15v68q16 -4 36.5 -9.5t45 -9.5t52.5 -4q68 0 100.5 16.5t42.5 41
t10 49.5v73l25 -25q-19 -10 -48 -19t-59 -15t-52 -6zM283 51q32 0 67.5 8.5t66.5 26.5v287q0 28 -15.5 42.5t-41.5 20t-56 5.5q-73 0 -110 -28.5t-50 -75.5t-13 -101q0 -82 35 -133.5t117 -51.5zM311 545q-32 0 -59.5 13t-47 38.5t-28.5 62.5h52q11 -30 32 -46t51 -16
t50.5 16t32.5 46h52q-7 -37 -26.5 -62.5t-47.5 -38.5t-61 -13z" />
    <glyph glyph-name="gcaron" unicode="&#x1e7;" 
d="M283 -15q-77 0 -127.5 30.5t-75.5 87t-25 133.5q0 86 23 139.5t59.5 82t80 39t84.5 10.5q47 0 89.5 -12.5t70 -39.5t27.5 -72v-404q0 -30 -9 -61t-32.5 -57.5t-66 -42.5t-109.5 -16q-43 0 -79 8t-63 15v68q16 -4 36.5 -9.5t45 -9.5t52.5 -4q68 0 100.5 16.5t42.5 41
t10 49.5v73l25 -25q-19 -10 -48 -19t-59 -15t-52 -6zM283 51q32 0 67.5 8.5t66.5 26.5v287q0 28 -15.5 42.5t-41.5 20t-56 5.5q-73 0 -110 -28.5t-50 -75.5t-13 -101q0 -82 35 -133.5t117 -51.5zM291 564l-81 120h56l45 -70l45 70h56l-80 -120h-41z" />
    <glyph glyph-name="gcircumflex" unicode="&#x11d;" 
d="M283 -15q-77 0 -127.5 30.5t-75.5 87t-25 133.5q0 86 23 139.5t59.5 82t80 39t84.5 10.5q47 0 89.5 -12.5t70 -39.5t27.5 -72v-404q0 -30 -9 -61t-32.5 -57.5t-66 -42.5t-109.5 -16q-43 0 -79 8t-63 15v68q16 -4 36.5 -9.5t45 -9.5t52.5 -4q68 0 100.5 16.5t42.5 41
t10 49.5v73l25 -25q-19 -10 -48 -19t-59 -15t-52 -6zM283 51q32 0 67.5 8.5t66.5 26.5v287q0 28 -15.5 42.5t-41.5 20t-56 5.5q-73 0 -110 -28.5t-50 -75.5t-13 -101q0 -82 35 -133.5t117 -51.5zM200 564l81 120h61l80 -120h-46l-65 70l-65 -70h-46z" />
    <glyph glyph-name="uni0123" unicode="&#x123;" 
d="M361 692v-54q-18 -7 -26.5 -23t-11 -34t-2.5 -33h-60q0 48 16 78t39 45.5t45 20.5zM283 -15q-77 0 -127.5 30.5t-75.5 87t-25 133.5q0 86 23 139.5t59.5 82t80 39t84.5 10.5q47 0 89.5 -12.5t70 -39.5t27.5 -72v-404q0 -30 -9 -61t-32.5 -57.5t-66 -42.5t-109.5 -16
q-43 0 -79 8t-63 15v68q16 -4 36.5 -9.5t45 -9.5t52.5 -4q68 0 100.5 16.5t42.5 41t10 49.5v73l25 -25q-19 -10 -48 -19t-59 -15t-52 -6zM283 51q32 0 67.5 8.5t66.5 26.5v287q0 28 -15.5 42.5t-41.5 20t-56 5.5q-73 0 -110 -28.5t-50 -75.5t-13 -101q0 -82 35 -133.5
t117 -51.5z" />
    <glyph glyph-name="gdotaccent" unicode="&#x121;" 
d="M283 -15q-77 0 -127.5 30.5t-75.5 87t-25 133.5q0 86 23 139.5t59.5 82t80 39t84.5 10.5q47 0 89.5 -12.5t70 -39.5t27.5 -72v-404q0 -30 -9 -61t-32.5 -57.5t-66 -42.5t-109.5 -16q-43 0 -79 8t-63 15v68q16 -4 36.5 -9.5t45 -9.5t52.5 -4q68 0 100.5 16.5t42.5 41
t10 49.5v73l25 -25q-19 -10 -48 -19t-59 -15t-52 -6zM283 51q32 0 67.5 8.5t66.5 26.5v287q0 28 -15.5 42.5t-41.5 20t-56 5.5q-73 0 -110 -28.5t-50 -75.5t-13 -101q0 -82 35 -133.5t117 -51.5zM271 564v79h79v-79h-79z" />
    <glyph glyph-name="uni1E21" unicode="&#x1e21;" 
d="M283 -15q-77 0 -127.5 30.5t-75.5 87t-25 133.5q0 86 23 139.5t59.5 82t80 39t84.5 10.5q47 0 89.5 -12.5t70 -39.5t27.5 -72v-404q0 -30 -9 -61t-32.5 -57.5t-66 -42.5t-109.5 -16q-43 0 -79 8t-63 15v68q16 -4 36.5 -9.5t45 -9.5t52.5 -4q68 0 100.5 16.5t42.5 41
t10 49.5v73l25 -25q-19 -10 -48 -19t-59 -15t-52 -6zM283 51q32 0 67.5 8.5t66.5 26.5v287q0 28 -15.5 42.5t-41.5 20t-56 5.5q-73 0 -110 -28.5t-50 -75.5t-13 -101q0 -82 35 -133.5t117 -51.5zM194 576v53h234v-53h-234z" />
    <glyph glyph-name="h" unicode="h" horiz-adv-x="575" 
d="M80 0v720h72v-277l-8 19q38 21 80 33.5t79 12.5q62 0 104.5 -23t65 -69.5t22.5 -119.5v-296h-72v296q0 70 -32 108t-96 38q-35 0 -70.5 -10t-72.5 -30v-402h-72z" />
    <glyph glyph-name="hbar" unicode="&#x127;" horiz-adv-x="575" 
d="M80 0v720h72v-277l-8 19q38 21 80 33.5t79 12.5q62 0 104.5 -23t65 -69.5t22.5 -119.5v-296h-72v296q0 70 -32 108t-96 38q-35 0 -70.5 -10t-72.5 -30v-402h-72zM-10 577v53h244v-53h-244z" />
    <glyph glyph-name="uni1E2B" unicode="&#x1e2b;" horiz-adv-x="575" 
d="M80 0v720h72v-277l-8 19q38 21 80 33.5t79 12.5q62 0 104.5 -23t65 -69.5t22.5 -119.5v-296h-72v296q0 70 -32 108t-96 38q-35 0 -70.5 -10t-72.5 -30v-402h-72zM284 -140q-32 0 -59.5 13t-47 38.5t-28.5 62.5h52q11 -30 32 -46t51 -16t50.5 16t32.5 46h52
q-7 -37 -26.5 -62.5t-47.5 -38.5t-61 -13z" />
    <glyph glyph-name="hcircumflex" unicode="&#x125;" horiz-adv-x="575" 
d="M80 0v720h72v-277l-8 19q38 21 80 33.5t79 12.5q62 0 104.5 -23t65 -69.5t22.5 -119.5v-296h-72v296q0 70 -32 108t-96 38q-35 0 -70.5 -10t-72.5 -30v-402h-72zM2 772l81 120h61l80 -120h-46l-65 70l-65 -70h-46z" />
    <glyph glyph-name="i" unicode="i" horiz-adv-x="240" 
d="M84 0v499h72v-499h-72zM80 588v79h80v-79h-80z" />
    <glyph glyph-name="dotlessi" unicode="&#x131;" horiz-adv-x="232" 
d="M80 0v499h72v-499h-72z" />
    <glyph glyph-name="iacute" unicode="&#xed;" horiz-adv-x="270" 
d="M99 0v499h72v-499h-72zM111 564l56 115h74l-83 -115h-47z" />
    <glyph glyph-name="ibreve" unicode="&#x12d;" horiz-adv-x="232" 
d="M80 0v499h72v-499h-72zM116 545q-32 0 -59.5 13t-47 38.5t-28.5 62.5h52q11 -30 32 -46t51 -16t50.5 16t32.5 46h52q-7 -37 -26.5 -62.5t-47.5 -38.5t-61 -13z" />
    <glyph glyph-name="uni01D0" unicode="&#x1d0;" horiz-adv-x="232" 
d="M80 0v499h72v-499h-72zM96 564l-81 120h56l45 -70l45 70h56l-80 -120h-41z" />
    <glyph glyph-name="icircumflex" unicode="&#xee;" horiz-adv-x="270" 
d="M99 0v499h72v-499h-72zM33 564l81 120h41l81 -120h-56l-45 70l-46 -70h-56z" />
    <glyph glyph-name="uni0209" unicode="&#x209;" horiz-adv-x="232" 
d="M80 0v499h72v-499h-72zM54 564l-83 115h73l57 -115h-47zM188 564l-83 115h73l57 -115h-47z" />
    <glyph glyph-name="idieresis" unicode="&#xef;" horiz-adv-x="270" 
d="M99 0v499h72v-499h-72zM21 564v79h79v-79h-79zM169 564v79h79v-79h-79z" />
    <glyph glyph-name="uni1E2F" unicode="&#x1e2f;" horiz-adv-x="232" 
d="M80 0v499h72v-499h-72zM150 564v79h79v-79h-79zM2 564v79h79v-79h-79zM90 708l57 115h74l-83 -115h-48z" />
    <glyph glyph-name="i.loclTRK" horiz-adv-x="240" 
d="M84 0v499h72v-499h-72zM80 588v79h80v-79h-80z" />
    <glyph glyph-name="uni1ECB" unicode="&#x1ecb;" horiz-adv-x="270" 
d="M99 0v499h72v-499h-72zM95 -129v79h79v-79h-79zM95 588v79h80v-79h-80z" />
    <glyph glyph-name="igrave" unicode="&#xec;" horiz-adv-x="270" 
d="M99 0v499h72v-499h-72zM111 564l-83 115h74l57 -115h-48z" />
    <glyph glyph-name="uni1EC9" unicode="&#x1ec9;" horiz-adv-x="270" 
d="M99 0v499h72v-499h-72zM117 564v52q21 1 29.5 8.5t8.5 14.5q0 13 -12.5 20t-35.5 7q-15 0 -27 -3v44q8 1 15.5 1.5t15.5 0.5q21 0 42 -5.5t35.5 -20.5t14.5 -42q0 -13 -5.5 -24t-17 -18.5t-30.5 -10.5v-24h-33z" />
    <glyph glyph-name="uni020B" unicode="&#x20b;" horiz-adv-x="232" 
d="M116 649q33 0 61 -13t47.5 -38t26.5 -63h-52q-12 30 -32.5 46t-50.5 16t-51 -16t-32 -46h-52q9 38 28.5 63t47 38t59.5 13zM80 0v499h72v-499h-72z" />
    <glyph glyph-name="ij" unicode="&#x133;" horiz-adv-x="508" 
d="M84 0v499h72v-499h-72zM80 588v79h80v-79h-80zM250 -193v67q44 1 65.5 12.5t29 34t7.5 54.5v524h72v-528q0 -55 -19 -91.5t-57.5 -54.5t-97.5 -18zM348 588v79h80v-79h-80z" />
    <glyph glyph-name="imacron" unicode="&#x12b;" horiz-adv-x="270" 
d="M99 0v499h72v-499h-72zM18 576v53h233v-53h-233z" />
    <glyph glyph-name="iogonek" unicode="&#x12f;" horiz-adv-x="240" 
d="M93 -173q-40 0 -64 21.5t-24 61.5q0 25 23 55t59 45l69 -10q-40 -19 -66 -41t-26 -44q0 -18 9 -26t25 -8q20 0 34.5 10.5t20.5 16.5v-63q-12 -7 -26.5 -12.5t-33.5 -5.5zM84 0v499h72v-499h-72zM80 588v79h80v-79h-80z" />
    <glyph glyph-name="itilde" unicode="&#x129;" horiz-adv-x="232" 
d="M80 0v499h72v-499h-72zM21 544h-46q-9 36 1 61t30.5 38t41.5 13q24 0 43 -9.5t34.5 -22t29.5 -22t29 -9.5q14 0 21.5 12.5t2.5 35.5h52q6 -29 -3 -52.5t-30 -37.5t-51 -14q-22 0 -40 9.5t-33.5 21.5t-29.5 21.5t-26 9.5q-13 0 -22.5 -13t-3.5 -42z" />
    <glyph glyph-name="j" unicode="j" horiz-adv-x="268" 
d="M10 -193v67q44 1 65.5 12.5t29 34t7.5 54.5v524h72v-528q0 -55 -19 -91.5t-57.5 -54.5t-97.5 -18zM108 588v79h80v-79h-80z" />
    <glyph glyph-name="uni0237" unicode="&#x237;" horiz-adv-x="251" 
d="M3 -193v67q44 1 65.5 12.5t29 34t7.5 54.5v524h72v-528q0 -55 -19 -91.5t-57.5 -54.5t-97.5 -18z" />
    <glyph glyph-name="jcircumflex" unicode="&#x135;" horiz-adv-x="251" 
d="M3 -193v67q44 1 65.5 12.5t29 34t7.5 54.5v524h72v-528q0 -55 -19 -91.5t-57.5 -54.5t-97.5 -18zM40 564l80 120h42l80 -120h-56l-45 70l-45 -70h-56z" />
    <glyph glyph-name="k" unicode="k" horiz-adv-x="511" 
d="M136 299l219 200h90l-293 -259zM152 0h-72v689h72v-689zM172 311l309 -311h-96l-262 265z" />
    <glyph glyph-name="uni0137" unicode="&#x137;" horiz-adv-x="549" 
d="M92 0v689h72v-435l225 245h97l-213 -229l240 -270h-95l-192 219l-62 -67v-152h-72zM212 -193v54q19 8 27.5 23.5t11 34t2.5 32.5h60q0 -48 -16 -78t-39 -45.5t-46 -20.5z" />
    <glyph glyph-name="kgreenlandic" unicode="&#x138;" horiz-adv-x="549" 
d="M92 0v499h72v-245l225 245h97l-213 -229l240 -270h-95l-192 219l-62 -67v-152h-72z" />
    <glyph glyph-name="l" unicode="l" horiz-adv-x="232" 
d="M152 0h-72v689h72v-689z" />
    <glyph glyph-name="lacute" unicode="&#x13a;" horiz-adv-x="232" 
d="M152 0h-72v689h72v-689zM98 754l57 115h74l-83 -115h-48z" />
    <glyph glyph-name="lcaron" unicode="&#x13e;" horiz-adv-x="270" 
d="M101 0v689h72v-689h-72zM207 546v54q19 7 27 23t10.5 34t2.5 32h60q0 -47 -16 -77t-39 -45.5t-45 -20.5z" />
    <glyph glyph-name="uni013C" unicode="&#x13c;" horiz-adv-x="232" 
d="M152 0h-72v689h72v-689zM66 -193v54q19 8 27 23.5t10.5 34t2.5 32.5h60q0 -48 -16 -78t-39 -45.5t-45 -20.5z" />
    <glyph glyph-name="ldot" unicode="&#x140;" horiz-adv-x="325" 
d="M152 0h-72v689h72v-689zM236 286v80h79v-80h-79z" />
    <glyph glyph-name="uni1E37" unicode="&#x1e37;" horiz-adv-x="232" 
d="M152 0h-72v689h72v-689zM76 -129v79h79v-79h-79z" />
    <glyph glyph-name="uni01C9" unicode="&#x1c9;" horiz-adv-x="500" 
d="M152 0h-72v689h72v-689zM242 -193v67q44 1 65.5 12.5t29 34t7.5 54.5v524h72v-528q0 -55 -19 -91.5t-57.5 -54.5t-97.5 -18zM340 588v79h80v-79h-80z" />
    <glyph glyph-name="uni1E3B" unicode="&#x1e3b;" horiz-adv-x="232" 
d="M152 0h-72v689h72v-689zM-1 -119v53h234v-53h-234z" />
    <glyph glyph-name="lslash" unicode="&#x142;" horiz-adv-x="270" 
d="M101 0v339l-66 -44v64l66 44v286h72v-237l78 52v-64l-78 -52v-388h-72z" />
    <glyph glyph-name="m" unicode="m" horiz-adv-x="883" 
d="M489 325v-325h-72v325q0 18 -4.5 38t-17.5 38.5t-40 30t-72 11.5q-31 0 -64 -5t-67 -15v-423h-72v459q24 12 49.5 21.5t52 15.5t54 9t55.5 3q73 0 116 -21.5t62.5 -62.5t19.5 -99zM394 439q33 25 67 40t70.5 22t73.5 7q73 0 116 -21.5t62.5 -62.5t19.5 -99v-325h-72v325
q0 18 -4.5 38t-17.5 38.5t-40 30t-72 11.5q-31 0 -64 -9t-67 -31z" />
    <glyph glyph-name="uni1E43" unicode="&#x1e43;" horiz-adv-x="883" 
d="M489 325v-325h-72v325q0 18 -4.5 38t-17.5 38.5t-40 30t-72 11.5q-31 0 -64 -5t-67 -15v-423h-72v459q24 12 49.5 21.5t52 15.5t54 9t55.5 3q73 0 116 -21.5t62.5 -62.5t19.5 -99zM394 439q33 25 67 40t70.5 22t73.5 7q73 0 116 -21.5t62.5 -62.5t19.5 -99v-325h-72v325
q0 18 -4.5 38t-17.5 38.5t-40 30t-72 11.5q-31 0 -64 -9t-67 -31zM402 -129v79h79v-79h-79z" />
    <glyph glyph-name="n" unicode="n" 
d="M80 459q24 12 49.5 21.5t52 15.5t54 9t55.5 3q73 0 116 -21.5t62.5 -62.5t19.5 -99v-325h-72v325q0 18 -4.5 38t-17.5 38.5t-40 30t-72 11.5q-31 0 -64 -5t-67 -15v-423h-72v459z" />
    <glyph glyph-name="nacute" unicode="&#x144;" 
d="M80 459q24 12 49.5 21.5t52 15.5t54 9t55.5 3q73 0 116 -21.5t62.5 -62.5t19.5 -99v-325h-72v325q0 18 -4.5 38t-17.5 38.5t-40 30t-72 11.5q-31 0 -64 -5t-67 -15v-423h-72v459zM260 564l57 115h74l-83 -115h-48z" />
    <glyph glyph-name="napostrophe" unicode="&#x149;" horiz-adv-x="581" 
d="M82 0v459q9 5 28.5 13t47.5 16t62 14t73 6q95 0 146.5 -48t51.5 -135v-325h-72v325q0 24 -8.5 49.5t-36.5 43.5t-88 18q-39 0 -72.5 -6t-59.5 -14v-416h-72zM32 520v54q19 8 27.5 23.5t11 34t2.5 32.5h60q0 -48 -16 -78t-39.5 -45.5t-45.5 -20.5z" />
    <glyph glyph-name="ncaron" unicode="&#x148;" 
d="M80 459q24 12 49.5 21.5t52 15.5t54 9t55.5 3q73 0 116 -21.5t62.5 -62.5t19.5 -99v-325h-72v325q0 18 -4.5 38t-17.5 38.5t-40 30t-72 11.5q-31 0 -64 -5t-67 -15v-423h-72v459zM266 564l-81 120h56l45 -70l45 70h56l-80 -120h-41z" />
    <glyph glyph-name="uni0146" unicode="&#x146;" 
d="M80 459q24 12 49.5 21.5t52 15.5t54 9t55.5 3q73 0 116 -21.5t62.5 -62.5t19.5 -99v-325h-72v325q0 18 -4.5 38t-17.5 38.5t-40 30t-72 11.5q-31 0 -64 -5t-67 -15v-423h-72v459zM236 -193v54q19 8 27 23.5t10.5 34t2.5 32.5h60q0 -48 -16 -78t-39 -45.5t-45 -20.5z" />
    <glyph glyph-name="uni1E45" unicode="&#x1e45;" 
d="M80 459q24 12 49.5 21.5t52 15.5t54 9t55.5 3q73 0 116 -21.5t62.5 -62.5t19.5 -99v-325h-72v325q0 18 -4.5 38t-17.5 38.5t-40 30t-72 11.5q-31 0 -64 -5t-67 -15v-423h-72v459zM246 564v79h79v-79h-79z" />
    <glyph glyph-name="uni1E47" unicode="&#x1e47;" 
d="M80 459q24 12 49.5 21.5t52 15.5t54 9t55.5 3q73 0 116 -21.5t62.5 -62.5t19.5 -99v-325h-72v325q0 18 -4.5 38t-17.5 38.5t-40 30t-72 11.5q-31 0 -64 -5t-67 -15v-423h-72v459zM246 -129v79h79v-79h-79z" />
    <glyph glyph-name="eng" unicode="&#x14b;" horiz-adv-x="581" 
d="M82 0v459q12 6 42.5 17.5t74 21.5t94.5 10q63 0 107 -21.5t67.5 -62.5t23.5 -99v-334q0 -41 -10.5 -72t-32.5 -51t-54.5 -30t-76.5 -10v67q44 1 65.5 12.5t29 34t7.5 54.5v329q0 24 -8.5 49.5t-36.5 43.5t-88 18q-39 0 -72.5 -6t-59.5 -14v-416h-72z" />
    <glyph glyph-name="uni0272" unicode="&#x272;" 
d="M80 4v455q24 12 49.5 21.5t52 15.5t54 9t55.5 3q73 0 116 -21.5t62.5 -62.5t19.5 -99v-325h-72v325q0 18 -4.5 38t-17.5 38.5t-40 30t-72 11.5q-31 0 -64 -5t-67 -15v-423q0 -55 -19 -91.5t-57.5 -54.5t-97.5 -18v67q44 1 65.5 12.5t29 34t7.5 54.5z" />
    <glyph glyph-name="uni01CC" unicode="&#x1cc;" horiz-adv-x="837" 
d="M80 459q24 12 49.5 21.5t52 15.5t54 9t55.5 3q73 0 116 -21.5t62.5 -62.5t19.5 -99v-325h-72v325q0 18 -4.5 38t-17.5 38.5t-40 30t-72 11.5q-31 0 -64 -5t-67 -15v-423h-72v459zM579 -193v67q44 1 65.5 12.5t29 34t7.5 54.5v524h72v-528q0 -55 -19 -91.5t-57.5 -54.5
t-97.5 -18zM677 588v79h80v-79h-80z" />
    <glyph glyph-name="uni1E49" unicode="&#x1e49;" 
d="M80 459q24 12 49.5 21.5t52 15.5t54 9t55.5 3q73 0 116 -21.5t62.5 -62.5t19.5 -99v-325h-72v325q0 18 -4.5 38t-17.5 38.5t-40 30t-72 11.5q-31 0 -64 -5t-67 -15v-423h-72v459zM169 -119v53h234v-53h-234z" />
    <glyph glyph-name="ntilde" unicode="&#xf1;" 
d="M80 459q24 12 49.5 21.5t52 15.5t54 9t55.5 3q73 0 116 -21.5t62.5 -62.5t19.5 -99v-325h-72v325q0 18 -4.5 38t-17.5 38.5t-40 30t-72 11.5q-31 0 -64 -5t-67 -15v-423h-72v459zM191 544h-46q-9 36 1 61t30.5 38t41.5 13q24 0 43 -9.5t34.5 -22t29.5 -22t29 -9.5
q14 0 21.5 12.5t2.5 35.5h52q6 -29 -3 -52.5t-30 -37.5t-51 -14q-22 0 -40 9.5t-33.5 21.5t-29.5 21.5t-26 9.5q-13 0 -22.5 -13t-3.5 -42z" />
    <glyph glyph-name="o" unicode="o" 
d="M285 -15q-117 0 -173.5 69.5t-56.5 193.5q0 130 59.5 195t168.5 65q81 0 132 -32.5t75 -91t24 -136.5q0 -123 -59.5 -193t-169.5 -70zM284 51q61 0 95 26.5t48.5 71t14.5 99.5q0 59 -15 102.5t-49.5 67.5t-93.5 24q-60 0 -94 -26t-48.5 -69.5t-14.5 -98.5
q0 -88 35 -142.5t122 -54.5z" />
    <glyph glyph-name="oacute" unicode="&#xf3;" 
d="M285 -15q-117 0 -173.5 69.5t-56.5 193.5q0 130 59.5 195t168.5 65q81 0 132 -32.5t75 -91t24 -136.5q0 -123 -59.5 -193t-169.5 -70zM284 51q61 0 95 26.5t48.5 71t14.5 99.5q0 59 -15 102.5t-49.5 67.5t-93.5 24q-60 0 -94 -26t-48.5 -69.5t-14.5 -98.5
q0 -88 35 -142.5t122 -54.5zM261 564l57 115h74l-83 -115h-48z" />
    <glyph glyph-name="obreve" unicode="&#x14f;" 
d="M285 -15q-117 0 -173.5 69.5t-56.5 193.5q0 130 59.5 195t168.5 65q81 0 132 -32.5t75 -91t24 -136.5q0 -123 -59.5 -193t-169.5 -70zM284 51q61 0 95 26.5t48.5 71t14.5 99.5q0 59 -15 102.5t-49.5 67.5t-93.5 24q-60 0 -94 -26t-48.5 -69.5t-14.5 -98.5
q0 -88 35 -142.5t122 -54.5zM287 545q-32 0 -59.5 13t-47 38.5t-28.5 62.5h52q11 -30 32 -46t51 -16t50.5 16t32.5 46h52q-7 -37 -26.5 -62.5t-47.5 -38.5t-61 -13z" />
    <glyph glyph-name="uni01D2" unicode="&#x1d2;" 
d="M285 -15q-117 0 -173.5 69.5t-56.5 193.5q0 130 59.5 195t168.5 65q81 0 132 -32.5t75 -91t24 -136.5q0 -123 -59.5 -193t-169.5 -70zM284 51q61 0 95 26.5t48.5 71t14.5 99.5q0 59 -15 102.5t-49.5 67.5t-93.5 24q-60 0 -94 -26t-48.5 -69.5t-14.5 -98.5
q0 -88 35 -142.5t122 -54.5zM267 564l-81 120h56l45 -70l45 70h56l-80 -120h-41z" />
    <glyph glyph-name="ocircumflex" unicode="&#xf4;" 
d="M285 -15q-117 0 -173.5 69.5t-56.5 193.5q0 130 59.5 195t168.5 65q81 0 132 -32.5t75 -91t24 -136.5q0 -123 -59.5 -193t-169.5 -70zM284 51q61 0 95 26.5t48.5 71t14.5 99.5q0 59 -15 102.5t-49.5 67.5t-93.5 24q-60 0 -94 -26t-48.5 -69.5t-14.5 -98.5
q0 -88 35 -142.5t122 -54.5zM176 564l81 120h61l80 -120h-46l-65 70l-65 -70h-46z" />
    <glyph glyph-name="uni1ED1" unicode="&#x1ed1;" 
d="M285 -15q-117 0 -173.5 69.5t-56.5 193.5q0 130 59.5 195t168.5 65q81 0 132 -32.5t75 -91t24 -136.5q0 -123 -59.5 -193t-169.5 -70zM284 51q61 0 95 26.5t48.5 71t14.5 99.5q0 59 -15 102.5t-49.5 67.5t-93.5 24q-60 0 -94 -26t-48.5 -69.5t-14.5 -98.5
q0 -88 35 -142.5t122 -54.5zM179 564l81 120h61l80 -120h-46l-65 70l-65 -70h-46zM373 636l57 115h74l-83 -115h-48z" />
    <glyph glyph-name="uni1ED9" unicode="&#x1ed9;" 
d="M285 -15q-117 0 -173.5 69.5t-56.5 193.5q0 130 59.5 195t168.5 65q81 0 132 -32.5t75 -91t24 -136.5q0 -123 -59.5 -193t-169.5 -70zM284 51q61 0 95 26.5t48.5 71t14.5 99.5q0 59 -15 102.5t-49.5 67.5t-93.5 24q-60 0 -94 -26t-48.5 -69.5t-14.5 -98.5
q0 -88 35 -142.5t122 -54.5zM176 564l81 120h61l80 -120h-46l-65 70l-65 -70h-46zM247 -129v79h79v-79h-79z" />
    <glyph glyph-name="uni1ED3" unicode="&#x1ed3;" 
d="M285 -15q-117 0 -173.5 69.5t-56.5 193.5q0 130 59.5 195t168.5 65q81 0 132 -32.5t75 -91t24 -136.5q0 -123 -59.5 -193t-169.5 -70zM284 51q61 0 95 26.5t48.5 71t14.5 99.5q0 59 -15 102.5t-49.5 67.5t-93.5 24q-60 0 -94 -26t-48.5 -69.5t-14.5 -98.5
q0 -88 35 -142.5t122 -54.5zM176 564l81 120h61l80 -120h-46l-65 70l-65 -70h-46zM131 630l-83 115h74l57 -115h-48z" />
    <glyph glyph-name="uni1ED5" unicode="&#x1ed5;" 
d="M285 -15q-117 0 -173.5 69.5t-56.5 193.5q0 130 59.5 195t168.5 65q81 0 132 -32.5t75 -91t24 -136.5q0 -123 -59.5 -193t-169.5 -70zM284 51q61 0 95 26.5t48.5 71t14.5 99.5q0 59 -15 102.5t-49.5 67.5t-93.5 24q-60 0 -94 -26t-48.5 -69.5t-14.5 -98.5
q0 -88 35 -142.5t122 -54.5zM170 559l81 120h61l80 -120h-46l-65 70l-65 -70h-46zM397 611v52q21 1 29.5 9t8.5 15q0 13 -12.5 19.5t-35.5 6.5q-7 0 -14 -0.5t-13 -1.5v43q8 2 15.5 2.5t15.5 0.5q21 0 42 -6t35.5 -20.5t14.5 -41.5q0 -19 -12.5 -34t-40.5 -20v-24h-33z" />
    <glyph glyph-name="uni1ED7" unicode="&#x1ed7;" 
d="M285 -15q-117 0 -173.5 69.5t-56.5 193.5q0 130 59.5 195t168.5 65q81 0 132 -32.5t75 -91t24 -136.5q0 -123 -59.5 -193t-169.5 -70zM284 51q61 0 95 26.5t48.5 71t14.5 99.5q0 59 -15 102.5t-49.5 67.5t-93.5 24q-60 0 -94 -26t-48.5 -69.5t-14.5 -98.5
q0 -88 35 -142.5t122 -54.5zM176 544l81 120h61l80 -120h-46l-65 70l-65 -70h-46zM191 699h-46q-9 36 1 61t30.5 38t41.5 13q24 0 43 -9.5t34.5 -22t29.5 -22t29 -9.5q14 0 21.5 12.5t2.5 35.5h52q6 -29 -3 -52.5t-30 -37.5t-51 -14q-22 0 -40 9.5t-33.5 21.5t-29.5 21.5
t-26 9.5q-13 0 -22.5 -13t-3.5 -42z" />
    <glyph glyph-name="uni020D" unicode="&#x20d;" 
d="M285 -15q-117 0 -173.5 69.5t-56.5 193.5q0 130 59.5 195t168.5 65q81 0 132 -32.5t75 -91t24 -136.5q0 -123 -59.5 -193t-169.5 -70zM284 51q61 0 95 26.5t48.5 71t14.5 99.5q0 59 -15 102.5t-49.5 67.5t-93.5 24q-60 0 -94 -26t-48.5 -69.5t-14.5 -98.5
q0 -88 35 -142.5t122 -54.5zM225 564l-83 115h73l57 -115h-47zM359 564l-83 115h73l57 -115h-47z" />
    <glyph glyph-name="odieresis" unicode="&#xf6;" 
d="M285 -15q-117 0 -173.5 69.5t-56.5 193.5q0 130 59.5 195t168.5 65q81 0 132 -32.5t75 -91t24 -136.5q0 -123 -59.5 -193t-169.5 -70zM284 51q61 0 95 26.5t48.5 71t14.5 99.5q0 59 -15 102.5t-49.5 67.5t-93.5 24q-60 0 -94 -26t-48.5 -69.5t-14.5 -98.5
q0 -88 35 -142.5t122 -54.5zM321 564v79h79v-79h-79zM173 564v79h79v-79h-79z" />
    <glyph glyph-name="uni022B" unicode="&#x22b;" 
d="M285 -15q-117 0 -173.5 69.5t-56.5 193.5q0 130 59.5 195t168.5 65q81 0 132 -32.5t75 -91t24 -136.5q0 -123 -59.5 -193t-169.5 -70zM284 51q61 0 95 26.5t48.5 71t14.5 99.5q0 59 -15 102.5t-49.5 67.5t-93.5 24q-60 0 -94 -26t-48.5 -69.5t-14.5 -98.5
q0 -88 35 -142.5t122 -54.5zM321 564v79h79v-79h-79zM173 564v79h79v-79h-79zM170 720v53h234v-53h-234z" />
    <glyph glyph-name="uni0231" unicode="&#x231;" 
d="M285 -15q-117 0 -173.5 69.5t-56.5 193.5q0 130 59.5 195t168.5 65q81 0 132 -32.5t75 -91t24 -136.5q0 -123 -59.5 -193t-169.5 -70zM284 51q61 0 95 26.5t48.5 71t14.5 99.5q0 59 -15 102.5t-49.5 67.5t-93.5 24q-60 0 -94 -26t-48.5 -69.5t-14.5 -98.5
q0 -88 35 -142.5t122 -54.5zM247 564v79h79v-79h-79zM170 720v53h234v-53h-234z" />
    <glyph glyph-name="uni1ECD" unicode="&#x1ecd;" 
d="M285 -15q-117 0 -173.5 69.5t-56.5 193.5q0 130 59.5 195t168.5 65q81 0 132 -32.5t75 -91t24 -136.5q0 -123 -59.5 -193t-169.5 -70zM284 51q61 0 95 26.5t48.5 71t14.5 99.5q0 59 -15 102.5t-49.5 67.5t-93.5 24q-60 0 -94 -26t-48.5 -69.5t-14.5 -98.5
q0 -88 35 -142.5t122 -54.5zM247 -129v79h79v-79h-79z" />
    <glyph glyph-name="ograve" unicode="&#xf2;" 
d="M285 -15q-117 0 -173.5 69.5t-56.5 193.5q0 130 59.5 195t168.5 65q81 0 132 -32.5t75 -91t24 -136.5q0 -123 -59.5 -193t-169.5 -70zM284 51q61 0 95 26.5t48.5 71t14.5 99.5q0 59 -15 102.5t-49.5 67.5t-93.5 24q-60 0 -94 -26t-48.5 -69.5t-14.5 -98.5
q0 -88 35 -142.5t122 -54.5zM265 564l-83 115h73l57 -115h-47z" />
    <glyph glyph-name="uni1ECF" unicode="&#x1ecf;" 
d="M285 -15q-117 0 -173.5 69.5t-56.5 193.5q0 130 59.5 195t168.5 65q81 0 132 -32.5t75 -91t24 -136.5q0 -123 -59.5 -193t-169.5 -70zM284 51q61 0 95 26.5t48.5 71t14.5 99.5q0 59 -15 102.5t-49.5 67.5t-93.5 24q-60 0 -94 -26t-48.5 -69.5t-14.5 -98.5
q0 -88 35 -142.5t122 -54.5zM262 562v52q21 1 29.5 9t8.5 15q0 13 -12.5 19.5t-35.5 6.5q-7 0 -14 -0.5t-13 -1.5v43q8 2 15.5 2.5t15.5 0.5q21 0 42 -6t35.5 -20.5t14.5 -41.5q0 -19 -12.5 -34t-40.5 -20v-24h-33z" />
    <glyph glyph-name="ohorn" unicode="&#x1a1;" 
d="M285 -15q-117 0 -173.5 69.5t-56.5 193.5q0 130 59.5 195t168.5 65q81 0 132 -32.5t75 -91t24 -136.5q0 -123 -59.5 -193t-169.5 -70zM284 51q61 0 95 26.5t48.5 71t14.5 99.5q0 59 -15 102.5t-49.5 67.5t-93.5 24q-60 0 -94 -26t-48.5 -69.5t-14.5 -98.5
q0 -88 35 -142.5t122 -54.5zM353 447l-2 52q28 0 51 20t23 48v26h54v-28q0 -37 -18 -63.5t-46.5 -40.5t-61.5 -14z" />
    <glyph glyph-name="uni1EDB" unicode="&#x1edb;" 
d="M285 -15q-117 0 -173.5 69.5t-56.5 193.5q0 130 59.5 195t168.5 65q81 0 132 -32.5t75 -91t24 -136.5q0 -123 -59.5 -193t-169.5 -70zM284 51q61 0 95 26.5t48.5 71t14.5 99.5q0 59 -15 102.5t-49.5 67.5t-93.5 24q-60 0 -94 -26t-48.5 -69.5t-14.5 -98.5
q0 -88 35 -142.5t122 -54.5zM353 447l-2 52q28 0 51 20t23 48v26h54v-28q0 -37 -18 -63.5t-46.5 -40.5t-61.5 -14zM261 564l57 115h74l-83 -115h-48z" />
    <glyph glyph-name="uni1EE3" unicode="&#x1ee3;" 
d="M285 -15q-117 0 -173.5 69.5t-56.5 193.5q0 130 59.5 195t168.5 65q81 0 132 -32.5t75 -91t24 -136.5q0 -123 -59.5 -193t-169.5 -70zM284 51q61 0 95 26.5t48.5 71t14.5 99.5q0 59 -15 102.5t-49.5 67.5t-93.5 24q-60 0 -94 -26t-48.5 -69.5t-14.5 -98.5
q0 -88 35 -142.5t122 -54.5zM353 447l-2 52q28 0 51 20t23 48v26h54v-28q0 -37 -18 -63.5t-46.5 -40.5t-61.5 -14zM247 -129v79h79v-79h-79z" />
    <glyph glyph-name="uni1EDD" unicode="&#x1edd;" 
d="M285 -15q-117 0 -173.5 69.5t-56.5 193.5q0 130 59.5 195t168.5 65q81 0 132 -32.5t75 -91t24 -136.5q0 -123 -59.5 -193t-169.5 -70zM284 51q61 0 95 26.5t48.5 71t14.5 99.5q0 59 -15 102.5t-49.5 67.5t-93.5 24q-60 0 -94 -26t-48.5 -69.5t-14.5 -98.5
q0 -88 35 -142.5t122 -54.5zM353 447l-2 52q28 0 51 20t23 48v26h54v-28q0 -37 -18 -63.5t-46.5 -40.5t-61.5 -14zM265 564l-83 115h73l57 -115h-47z" />
    <glyph glyph-name="uni1EDF" unicode="&#x1edf;" 
d="M285 -15q-117 0 -173.5 69.5t-56.5 193.5q0 130 59.5 195t168.5 65q81 0 132 -32.5t75 -91t24 -136.5q0 -123 -59.5 -193t-169.5 -70zM284 51q61 0 95 26.5t48.5 71t14.5 99.5q0 59 -15 102.5t-49.5 67.5t-93.5 24q-60 0 -94 -26t-48.5 -69.5t-14.5 -98.5
q0 -88 35 -142.5t122 -54.5zM353 447l-2 52q28 0 51 20t23 48v26h54v-28q0 -37 -18 -63.5t-46.5 -40.5t-61.5 -14zM262 562v52q21 1 29.5 9t8.5 15q0 13 -12.5 19.5t-35.5 6.5q-7 0 -14 -0.5t-13 -1.5v43q8 2 15.5 2.5t15.5 0.5q21 0 42 -6t35.5 -20.5t14.5 -41.5
q0 -19 -12.5 -34t-40.5 -20v-24h-33z" />
    <glyph glyph-name="uni1EE1" unicode="&#x1ee1;" 
d="M285 -15q-117 0 -173.5 69.5t-56.5 193.5q0 130 59.5 195t168.5 65q81 0 132 -32.5t75 -91t24 -136.5q0 -123 -59.5 -193t-169.5 -70zM284 51q61 0 95 26.5t48.5 71t14.5 99.5q0 59 -15 102.5t-49.5 67.5t-93.5 24q-60 0 -94 -26t-48.5 -69.5t-14.5 -98.5
q0 -88 35 -142.5t122 -54.5zM353 447l-2 52q28 0 51 20t23 48v26h54v-28q0 -37 -18 -63.5t-46.5 -40.5t-61.5 -14zM175 559h-46q-9 36 1 61t30.5 38t41.5 13q24 0 43 -9.5t34.5 -22t29.5 -22t29 -9.5q14 0 21.5 12.5t2.5 35.5h52q6 -29 -3 -52.5t-30 -37.5t-51 -14
q-22 0 -40 9.5t-33.5 21.5t-29.5 21.5t-26 9.5q-13 0 -22.5 -13t-3.5 -42z" />
    <glyph glyph-name="ohungarumlaut" unicode="&#x151;" 
d="M285 -15q-117 0 -173.5 69.5t-56.5 193.5q0 130 59.5 195t168.5 65q81 0 132 -32.5t75 -91t24 -136.5q0 -123 -59.5 -193t-169.5 -70zM284 51q61 0 95 26.5t48.5 71t14.5 99.5q0 59 -15 102.5t-49.5 67.5t-93.5 24q-60 0 -94 -26t-48.5 -69.5t-14.5 -98.5
q0 -88 35 -142.5t122 -54.5zM321 564l57 115h74l-83 -115h-48zM201 564l57 115h74l-83 -115h-48z" />
    <glyph glyph-name="uni020F" unicode="&#x20f;" 
d="M287 649q33 0 61 -13t47.5 -38t26.5 -63h-52q-12 30 -32.5 46t-50.5 16t-51 -16t-32 -46h-52q9 38 28.5 63t47 38t59.5 13zM285 -15q-117 0 -173.5 69.5t-56.5 193.5q0 130 59.5 195t168.5 65q81 0 132 -32.5t75 -91t24 -136.5q0 -123 -59.5 -193t-169.5 -70zM284 51
q61 0 95 26.5t48.5 71t14.5 99.5q0 59 -15 102.5t-49.5 67.5t-93.5 24q-60 0 -94 -26t-48.5 -69.5t-14.5 -98.5q0 -88 35 -142.5t122 -54.5z" />
    <glyph glyph-name="omacron" unicode="&#x14d;" 
d="M285 -15q-117 0 -173.5 69.5t-56.5 193.5q0 130 59.5 195t168.5 65q81 0 132 -32.5t75 -91t24 -136.5q0 -123 -59.5 -193t-169.5 -70zM284 51q61 0 95 26.5t48.5 71t14.5 99.5q0 59 -15 102.5t-49.5 67.5t-93.5 24q-60 0 -94 -26t-48.5 -69.5t-14.5 -98.5
q0 -88 35 -142.5t122 -54.5zM170 576v53h234v-53h-234z" />
    <glyph glyph-name="uni1E53" unicode="&#x1e53;" 
d="M285 -15q-117 0 -173.5 69.5t-56.5 193.5q0 130 59.5 195t168.5 65q81 0 132 -32.5t75 -91t24 -136.5q0 -123 -59.5 -193t-169.5 -70zM284 51q61 0 95 26.5t48.5 71t14.5 99.5q0 59 -15 102.5t-49.5 67.5t-93.5 24q-60 0 -94 -26t-48.5 -69.5t-14.5 -98.5
q0 -88 35 -142.5t122 -54.5zM170 576v53h234v-53h-234zM261 694l57 115h74l-83 -115h-48z" />
    <glyph glyph-name="uni1E51" unicode="&#x1e51;" 
d="M285 -15q-117 0 -173.5 69.5t-56.5 193.5q0 130 59.5 195t168.5 65q81 0 132 -32.5t75 -91t24 -136.5q0 -123 -59.5 -193t-169.5 -70zM284 51q61 0 95 26.5t48.5 71t14.5 99.5q0 59 -15 102.5t-49.5 67.5t-93.5 24q-60 0 -94 -26t-48.5 -69.5t-14.5 -98.5
q0 -88 35 -142.5t122 -54.5zM170 576v53h234v-53h-234zM265 694l-83 115h73l57 -115h-47z" />
    <glyph glyph-name="uni01EB" unicode="&#x1eb;" 
d="M285 -15q-117 0 -173.5 69.5t-56.5 193.5q0 130 59.5 195t168.5 65q81 0 132 -32.5t75 -91t24 -136.5q0 -123 -59.5 -193t-169.5 -70zM284 51q61 0 95 26.5t48.5 71t14.5 99.5q0 59 -15 102.5t-49.5 67.5t-93.5 24q-60 0 -94 -26t-48.5 -69.5t-14.5 -98.5
q0 -88 35 -142.5t122 -54.5zM317 -173q-40 0 -64 21.5t-24 61.5q0 25 18.5 52t54.5 42l78 -4q-40 -19 -66 -41t-26 -44q0 -18 9 -26t25 -8q20 0 34.5 10.5t20.5 16.5v-63q-12 -7 -26.5 -12.5t-33.5 -5.5z" />
    <glyph glyph-name="oslash" unicode="&#xf8;" horiz-adv-x="574" 
d="M115 0h-78l421 499h78zM285 -15q-117 0 -173.5 69.5t-56.5 193.5q0 130 59.5 195t168.5 65q81 0 132 -32.5t75 -91t24 -136.5q0 -123 -59.5 -193t-169.5 -70zM284 51q61 0 95 26.5t48.5 71t14.5 99.5q0 59 -15 102.5t-49.5 67.5t-93.5 24q-60 0 -94 -26t-48.5 -69.5
t-14.5 -98.5q0 -88 35 -142.5t122 -54.5z" />
    <glyph glyph-name="oslashacute" unicode="&#x1ff;" horiz-adv-x="574" 
d="M115 0h-78l421 499h78zM285 -15q-117 0 -173.5 69.5t-56.5 193.5q0 130 59.5 195t168.5 65q81 0 132 -32.5t75 -91t24 -136.5q0 -123 -59.5 -193t-169.5 -70zM284 51q61 0 95 26.5t48.5 71t14.5 99.5q0 59 -15 102.5t-49.5 67.5t-93.5 24q-60 0 -94 -26t-48.5 -69.5
t-14.5 -98.5q0 -88 35 -142.5t122 -54.5zM261 564l57 115h74l-83 -115h-48z" />
    <glyph glyph-name="otilde" unicode="&#xf5;" 
d="M285 -15q-117 0 -173.5 69.5t-56.5 193.5q0 130 59.5 195t168.5 65q81 0 132 -32.5t75 -91t24 -136.5q0 -123 -59.5 -193t-169.5 -70zM284 51q61 0 95 26.5t48.5 71t14.5 99.5q0 59 -15 102.5t-49.5 67.5t-93.5 24q-60 0 -94 -26t-48.5 -69.5t-14.5 -98.5
q0 -88 35 -142.5t122 -54.5zM192 544h-46q-9 36 1 61t30.5 38t41.5 13q24 0 43 -9.5t34.5 -22t29.5 -22t29 -9.5q14 0 21.5 12.5t2.5 35.5h52q6 -29 -3 -52.5t-30 -37.5t-51 -14q-22 0 -40 9.5t-33.5 21.5t-29.5 21.5t-26 9.5q-13 0 -22.5 -13t-3.5 -42z" />
    <glyph glyph-name="uni1E4D" unicode="&#x1e4d;" 
d="M285 -15q-117 0 -173.5 69.5t-56.5 193.5q0 130 59.5 195t168.5 65q81 0 132 -32.5t75 -91t24 -136.5q0 -123 -59.5 -193t-169.5 -70zM284 51q61 0 95 26.5t48.5 71t14.5 99.5q0 59 -15 102.5t-49.5 67.5t-93.5 24q-60 0 -94 -26t-48.5 -69.5t-14.5 -98.5
q0 -88 35 -142.5t122 -54.5zM192 544h-46q-9 36 1 61t30.5 38t41.5 13q24 0 43 -9.5t34.5 -22t29.5 -22t29 -9.5q14 0 21.5 12.5t2.5 35.5h52q6 -29 -3 -52.5t-30 -37.5t-51 -14q-22 0 -40 9.5t-33.5 21.5t-29.5 21.5t-26 9.5q-13 0 -22.5 -13t-3.5 -42zM261 723l57 115h74
l-83 -115h-48z" />
    <glyph glyph-name="uni1E4F" unicode="&#x1e4f;" 
d="M285 -15q-117 0 -173.5 69.5t-56.5 193.5q0 130 59.5 195t168.5 65q81 0 132 -32.5t75 -91t24 -136.5q0 -123 -59.5 -193t-169.5 -70zM284 51q61 0 95 26.5t48.5 71t14.5 99.5q0 59 -15 102.5t-49.5 67.5t-93.5 24q-60 0 -94 -26t-48.5 -69.5t-14.5 -98.5
q0 -88 35 -142.5t122 -54.5zM192 544h-46q-9 36 1 61t30.5 38t41.5 13q24 0 43 -9.5t34.5 -22t29.5 -22t29 -9.5q14 0 21.5 12.5t2.5 35.5h52q6 -29 -3 -52.5t-30 -37.5t-51 -14q-22 0 -40 9.5t-33.5 21.5t-29.5 21.5t-26 9.5q-13 0 -22.5 -13t-3.5 -42zM321 723v79h79v-79
h-79zM173 723v79h79v-79h-79z" />
    <glyph glyph-name="uni022D" unicode="&#x22d;" 
d="M285 -15q-117 0 -173.5 69.5t-56.5 193.5q0 130 59.5 195t168.5 65q81 0 132 -32.5t75 -91t24 -136.5q0 -123 -59.5 -193t-169.5 -70zM284 51q61 0 95 26.5t48.5 71t14.5 99.5q0 59 -15 102.5t-49.5 67.5t-93.5 24q-60 0 -94 -26t-48.5 -69.5t-14.5 -98.5
q0 -88 35 -142.5t122 -54.5zM192 544h-46q-9 36 1 61t30.5 38t41.5 13q24 0 43 -9.5t34.5 -22t29.5 -22t29 -9.5q14 0 21.5 12.5t2.5 35.5h52q6 -29 -3 -52.5t-30 -37.5t-51 -14q-22 0 -40 9.5t-33.5 21.5t-29.5 21.5t-26 9.5q-13 0 -22.5 -13t-3.5 -42zM170 735v53h234v-53
h-234z" />
    <glyph glyph-name="oe" unicode="&#x153;" horiz-adv-x="936" 
d="M285 -15q-117 0 -173.5 69.5t-56.5 193.5q0 130 59.5 195t168.5 65q81 0 132 -32.5t75 -91t24 -136.5q0 -123 -59.5 -193t-169.5 -70zM284 51q61 0 95 26.5t48.5 71t14.5 99.5q0 59 -15 102.5t-49.5 67.5t-93.5 24q-60 0 -94 -26t-48.5 -69.5t-14.5 -98.5
q0 -88 35 -142.5t122 -54.5zM675 -15q-71 0 -123 29.5t-80 88.5t-28 147q0 129 58.5 193.5t160.5 64.5q80 0 128.5 -36t69.5 -97t20 -138h-401l5 66h349l-28 -10q-3 75 -37.5 112t-105.5 37q-49 0 -81.5 -18t-48.5 -62.5t-16 -124.5q0 -91 42.5 -138.5t119.5 -47.5
q37 0 68 5.5t57 15.5t46 22v-74q-36 -17 -79.5 -26t-95.5 -9z" />
    <glyph glyph-name="p" unicode="p" 
d="M276 -14q-22 0 -49.5 6t-53.5 15t-46 19l25 25v-268h-72v626q0 31 19.5 50t50.5 29.5t66 15t66 4.5q60 0 113 -25t86 -84.5t33 -161.5q0 -77 -27.5 -133.5t-80.5 -87t-130 -30.5zM276 52q55 0 90.5 23.5t53.5 65.5t18 96t-12 101t-46 75.5t-99 28.5q-52 0 -90.5 -12
t-38.5 -34v-309q31 -18 62 -26.5t62 -8.5z" />
    <glyph glyph-name="thorn" unicode="&#xfe;" 
d="M152 -200h-72v889h72v-889zM152 87q31 -18 62 -26.5t62 -8.5q55 0 90.5 23.5t53.5 65.5t18 96t-12 101t-46 75.5t-99 28.5q-52 0 -90.5 -12t-38.5 -34l-72 13q0 31 19.5 50t50.5 29.5t66 15t66 4.5q60 0 113 -25t86 -84.5t33 -161.5q0 -77 -27.5 -133.5t-80.5 -87
t-130 -30.5q-22 0 -49.5 6t-53.5 15t-46 19z" />
    <glyph glyph-name="q" unicode="q" 
d="M309 508q46 0 87 -10t67 -36t26 -73v-606h-72v268l25 -25q-19 -10 -45.5 -19t-54 -15t-49.5 -6q-115 0 -176.5 68t-61.5 183q0 86 23 139.5t60.5 82t82 39t88.5 10.5zM302 442q-72 0 -109 -28.5t-49.5 -75.5t-12.5 -101t18 -96t54 -65.5t90 -23.5q32 0 62.5 8.5
t61.5 26.5v302q0 19 -18.5 30.5t-45 17t-51.5 5.5z" />
    <glyph glyph-name="r" unicode="r" horiz-adv-x="377" 
d="M80 0v459q12 5 46.5 17t83 22t100.5 10q8 0 16 -2l16 -4v-64q-26 3 -50.5 3t-47.5 -2.5t-46 -6.5l-46 -8v-424h-72z" />
    <glyph glyph-name="racute" unicode="&#x155;" horiz-adv-x="377" 
d="M80 0v459q12 5 46.5 17t83 22t100.5 10q8 0 16 -2l16 -4v-64q-26 3 -50.5 3t-47.5 -2.5t-46 -6.5l-46 -8v-424h-72zM155 564l57 115h74l-83 -115h-48z" />
    <glyph glyph-name="rcaron" unicode="&#x159;" horiz-adv-x="377" 
d="M80 0v459q12 5 46.5 17t83 22t100.5 10q8 0 16 -2l16 -4v-64q-26 3 -50.5 3t-47.5 -2.5t-46 -6.5l-46 -8v-424h-72zM161 564l-81 120h56l45 -70l45 70h56l-80 -120h-41z" />
    <glyph glyph-name="uni0157" unicode="&#x157;" horiz-adv-x="377" 
d="M80 0v459q12 5 46.5 17t83 22t100.5 10q8 0 16 -2l16 -4v-64q-26 3 -50.5 3t-47.5 -2.5t-46 -6.5l-46 -8v-424h-72zM48 -193v54q19 8 27 23.5t10.5 34t2.5 32.5h60q0 -48 -16 -78t-39 -45.5t-45 -20.5z" />
    <glyph glyph-name="uni0211" unicode="&#x211;" horiz-adv-x="377" 
d="M80 0v459q12 5 46.5 17t83 22t100.5 10q8 0 16 -2l16 -4v-64q-26 3 -50.5 3t-47.5 -2.5t-46 -6.5l-46 -8v-424h-72zM119 564l-83 115h73l57 -115h-47zM253 564l-83 115h73l57 -115h-47z" />
    <glyph glyph-name="uni0213" unicode="&#x213;" horiz-adv-x="377" 
d="M181 649q33 0 61 -13t47.5 -38t26.5 -63h-52q-12 30 -32.5 46t-50.5 16t-51 -16t-32 -46h-52q9 38 28.5 63t47 38t59.5 13zM80 0v459q12 5 46.5 17t83 22t100.5 10q8 0 16 -2l16 -4v-64q-26 3 -50.5 3t-47.5 -2.5t-46 -6.5l-46 -8v-424h-72z" />
    <glyph glyph-name="uni1E5F" unicode="&#x1e5f;" horiz-adv-x="377" 
d="M80 0v459q12 5 46.5 17t83 22t100.5 10q8 0 16 -2l16 -4v-64q-26 3 -50.5 3t-47.5 -2.5t-46 -6.5l-46 -8v-424h-72zM-19 -119v53h234v-53h-234z" />
    <glyph glyph-name="s" unicode="s" horiz-adv-x="456" 
d="M221 -15q-54 0 -90.5 11t-75.5 31v76q31 -17 55 -29t49 -17.5t57 -5.5q50 0 81.5 22t31.5 57q0 28 -15.5 43t-39.5 25t-50 21q-29 8 -58.5 17.5t-54 25t-39.5 40t-15 63.5q0 38 15.5 65t40.5 44.5t56 25.5t62 8q45 0 77 -12t66 -27v-72q-38 20 -68 32.5t-71 12.5
t-73.5 -16.5t-32.5 -50.5q0 -28 16.5 -44.5t43.5 -26t58 -18.5q25 -8 52 -17.5t50 -25t37.5 -40.5t14.5 -64q0 -53 -27 -87.5t-68.5 -50.5t-84.5 -16z" />
    <glyph glyph-name="sacute" unicode="&#x15b;" horiz-adv-x="456" 
d="M221 -15q-54 0 -90.5 11t-75.5 31v76q31 -17 55 -29t49 -17.5t57 -5.5q50 0 81.5 22t31.5 57q0 28 -15.5 43t-39.5 25t-50 21q-29 8 -58.5 17.5t-54 25t-39.5 40t-15 63.5q0 38 15.5 65t40.5 44.5t56 25.5t62 8q45 0 77 -12t66 -27v-72q-38 20 -68 32.5t-71 12.5
t-73.5 -16.5t-32.5 -50.5q0 -28 16.5 -44.5t43.5 -26t58 -18.5q25 -8 52 -17.5t50 -25t37.5 -40.5t14.5 -64q0 -53 -27 -87.5t-68.5 -50.5t-84.5 -16zM207 564l57 115h74l-83 -115h-48z" />
    <glyph glyph-name="uni1E65" unicode="&#x1e65;" horiz-adv-x="456" 
d="M221 -15q-54 0 -90.5 11t-75.5 31v76q31 -17 55 -29t49 -17.5t57 -5.5q50 0 81.5 22t31.5 57q0 28 -15.5 43t-39.5 25t-50 21q-29 8 -58.5 17.5t-54 25t-39.5 40t-15 63.5q0 38 15.5 65t40.5 44.5t56 25.5t62 8q45 0 77 -12t66 -27v-72q-38 20 -68 32.5t-71 12.5
t-73.5 -16.5t-32.5 -50.5q0 -28 16.5 -44.5t43.5 -26t58 -18.5q25 -8 52 -17.5t50 -25t37.5 -40.5t14.5 -64q0 -53 -27 -87.5t-68.5 -50.5t-84.5 -16zM207 564l57 115h74l-83 -115h-48zM233 744v79h79v-79h-79z" />
    <glyph glyph-name="scaron" unicode="&#x161;" horiz-adv-x="456" 
d="M221 -15q-54 0 -90.5 11t-75.5 31v76q31 -17 55 -29t49 -17.5t57 -5.5q50 0 81.5 22t31.5 57q0 28 -15.5 43t-39.5 25t-50 21q-29 8 -58.5 17.5t-54 25t-39.5 40t-15 63.5q0 38 15.5 65t40.5 44.5t56 25.5t62 8q45 0 77 -12t66 -27v-72q-38 20 -68 32.5t-71 12.5
t-73.5 -16.5t-32.5 -50.5q0 -28 16.5 -44.5t43.5 -26t58 -18.5q25 -8 52 -17.5t50 -25t37.5 -40.5t14.5 -64q0 -53 -27 -87.5t-68.5 -50.5t-84.5 -16zM213 564l-81 120h56l45 -70l45 70h56l-80 -120h-41z" />
    <glyph glyph-name="uni1E67" unicode="&#x1e67;" horiz-adv-x="456" 
d="M221 -15q-54 0 -90.5 11t-75.5 31v76q31 -17 55 -29t49 -17.5t57 -5.5q50 0 81.5 22t31.5 57q0 28 -15.5 43t-39.5 25t-50 21q-29 8 -58.5 17.5t-54 25t-39.5 40t-15 63.5q0 38 15.5 65t40.5 44.5t56 25.5t62 8q45 0 77 -12t66 -27v-72q-38 20 -68 32.5t-71 12.5
t-73.5 -16.5t-32.5 -50.5q0 -28 16.5 -44.5t43.5 -26t58 -18.5q25 -8 52 -17.5t50 -25t37.5 -40.5t14.5 -64q0 -53 -27 -87.5t-68.5 -50.5t-84.5 -16zM213 564l-81 120h56l45 -70l45 70h56l-80 -120h-41zM193 749v79h79v-79h-79z" />
    <glyph glyph-name="scedilla" unicode="&#x15f;" horiz-adv-x="456" 
d="M221 -15q-54 0 -90.5 11t-75.5 31v76q31 -17 55 -29t49 -17.5t57 -5.5q50 0 81.5 22t31.5 57q0 28 -15.5 43t-39.5 25t-50 21q-29 8 -58.5 17.5t-54 25t-39.5 40t-15 63.5q0 38 15.5 65t40.5 44.5t56 25.5t62 8q45 0 77 -12t66 -27v-72q-38 20 -68 32.5t-71 12.5
t-73.5 -16.5t-32.5 -50.5q0 -28 16.5 -44.5t43.5 -26t58 -18.5q25 -8 52 -17.5t50 -25t37.5 -40.5t14.5 -64q0 -53 -27 -87.5t-68.5 -50.5t-84.5 -16zM133 -120l82 115h57l-63 -115h-76z" />
    <glyph glyph-name="scircumflex" unicode="&#x15d;" horiz-adv-x="456" 
d="M221 -15q-54 0 -90.5 11t-75.5 31v76q31 -17 55 -29t49 -17.5t57 -5.5q50 0 81.5 22t31.5 57q0 28 -15.5 43t-39.5 25t-50 21q-29 8 -58.5 17.5t-54 25t-39.5 40t-15 63.5q0 38 15.5 65t40.5 44.5t56 25.5t62 8q45 0 77 -12t66 -27v-72q-38 20 -68 32.5t-71 12.5
t-73.5 -16.5t-32.5 -50.5q0 -28 16.5 -44.5t43.5 -26t58 -18.5q25 -8 52 -17.5t50 -25t37.5 -40.5t14.5 -64q0 -53 -27 -87.5t-68.5 -50.5t-84.5 -16zM122 564l81 120h61l80 -120h-46l-65 70l-65 -70h-46z" />
    <glyph glyph-name="uni0219" unicode="&#x219;" horiz-adv-x="456" 
d="M221 -15q-54 0 -90.5 11t-75.5 31v76q31 -17 55 -29t49 -17.5t57 -5.5q50 0 81.5 22t31.5 57q0 28 -15.5 43t-39.5 25t-50 21q-29 8 -58.5 17.5t-54 25t-39.5 40t-15 63.5q0 38 15.5 65t40.5 44.5t56 25.5t62 8q45 0 77 -12t66 -27v-72q-38 20 -68 32.5t-71 12.5
t-73.5 -16.5t-32.5 -50.5q0 -28 16.5 -44.5t43.5 -26t58 -18.5q25 -8 52 -17.5t50 -25t37.5 -40.5t14.5 -64q0 -53 -27 -87.5t-68.5 -50.5t-84.5 -16zM153 -193v54q19 8 27 23.5t10.5 34t2.5 32.5h60q0 -48 -16 -78t-39 -45.5t-45 -20.5z" />
    <glyph glyph-name="uni1E61" unicode="&#x1e61;" horiz-adv-x="456" 
d="M221 -15q-54 0 -90.5 11t-75.5 31v76q31 -17 55 -29t49 -17.5t57 -5.5q50 0 81.5 22t31.5 57q0 28 -15.5 43t-39.5 25t-50 21q-29 8 -58.5 17.5t-54 25t-39.5 40t-15 63.5q0 38 15.5 65t40.5 44.5t56 25.5t62 8q45 0 77 -12t66 -27v-72q-38 20 -68 32.5t-71 12.5
t-73.5 -16.5t-32.5 -50.5q0 -28 16.5 -44.5t43.5 -26t58 -18.5q25 -8 52 -17.5t50 -25t37.5 -40.5t14.5 -64q0 -53 -27 -87.5t-68.5 -50.5t-84.5 -16zM193 564v79h79v-79h-79z" />
    <glyph glyph-name="uni1E63" unicode="&#x1e63;" horiz-adv-x="456" 
d="M221 -15q-54 0 -90.5 11t-75.5 31v76q31 -17 55 -29t49 -17.5t57 -5.5q50 0 81.5 22t31.5 57q0 28 -15.5 43t-39.5 25t-50 21q-29 8 -58.5 17.5t-54 25t-39.5 40t-15 63.5q0 38 15.5 65t40.5 44.5t56 25.5t62 8q45 0 77 -12t66 -27v-72q-38 20 -68 32.5t-71 12.5
t-73.5 -16.5t-32.5 -50.5q0 -28 16.5 -44.5t43.5 -26t58 -18.5q25 -8 52 -17.5t50 -25t37.5 -40.5t14.5 -64q0 -53 -27 -87.5t-68.5 -50.5t-84.5 -16zM163 -129v79h79v-79h-79z" />
    <glyph glyph-name="uni1E69" unicode="&#x1e69;" horiz-adv-x="456" 
d="M221 -15q-54 0 -90.5 11t-75.5 31v76q31 -17 55 -29t49 -17.5t57 -5.5q50 0 81.5 22t31.5 57q0 28 -15.5 43t-39.5 25t-50 21q-29 8 -58.5 17.5t-54 25t-39.5 40t-15 63.5q0 38 15.5 65t40.5 44.5t56 25.5t62 8q45 0 77 -12t66 -27v-72q-38 20 -68 32.5t-71 12.5
t-73.5 -16.5t-32.5 -50.5q0 -28 16.5 -44.5t43.5 -26t58 -18.5q25 -8 52 -17.5t50 -25t37.5 -40.5t14.5 -64q0 -53 -27 -87.5t-68.5 -50.5t-84.5 -16zM163 -129v79h79v-79h-79zM193 564v79h79v-79h-79z" />
    <glyph glyph-name="germandbls" unicode="&#xdf;" horiz-adv-x="585" 
d="M80 0v423q0 70 20.5 127.5t66 91.5t119.5 34q60 0 107.5 -18t75.5 -53t28 -86q0 -31 -8 -55.5t-21 -43.5t-29.5 -31.5t-34.5 -18.5q26 -8 55 -33.5t50 -66.5t21 -97q0 -49 -21.5 -91.5t-65 -68.5t-110.5 -26q-19 0 -40 3.5t-44 9.5v71q24 -9 46 -13.5t41 -4.5
q58 0 89 31.5t31 92.5q0 47 -24.5 81t-61.5 52t-75 18v63q68 0 98 33.5t30 85.5q0 37 -19 59.5t-49.5 32.5t-66.5 10q-73 0 -104.5 -49t-31.5 -133v-430h-72z" />
    <glyph glyph-name="t" unicode="t" horiz-adv-x="363" 
d="M237 -8q-53 0 -89 32.5t-36 96.5v312h-87v66h87v141h72v-141h129v-66h-129v-289q0 -42 13 -63t53 -21q18 0 35 3.5t28 8.5v-68q-14 -5 -35.5 -8.5t-40.5 -3.5z" />
    <glyph glyph-name="tbar" unicode="&#x167;" horiz-adv-x="345" 
d="M246 -8q-15 0 -38 4.5t-45 18t-37 42t-15 76.5v111h-74v60h74v129h-87v66h87v141h72v-141h129v-66h-129v-129h114v-60h-114v-115q0 -37 16 -53t56 -16q18 0 32.5 3.5t24.5 8.5v-68q-14 -5 -30.5 -8.5t-35.5 -3.5z" />
    <glyph glyph-name="tcaron" unicode="&#x165;" horiz-adv-x="378" 
d="M237 -8q-53 0 -89 32.5t-36 96.5v312h-87v66h87v141h72v-141h129v-66h-129v-289q0 -42 13 -63t53 -21q18 0 35 3.5t28 8.5v-68q-14 -5 -35.5 -8.5t-40.5 -3.5zM249 544l74 196h82l-84 -196h-72z" />
    <glyph glyph-name="uni0163" unicode="&#x163;" horiz-adv-x="363" 
d="M237 -8q-53 0 -89 32.5t-36 96.5v312h-87v66h87v141h72v-141h129v-66h-129v-289q0 -42 13 -63t53 -21q18 0 35 3.5t28 8.5v-68q-14 -5 -35.5 -8.5t-40.5 -3.5zM104 -120l82 115h57l-63 -115h-76z" />
    <glyph glyph-name="uni1E97" unicode="&#x1e97;" horiz-adv-x="363" 
d="M237 -8q-53 0 -89 32.5t-36 96.5v312h-87v66h87v141h72v-141h129v-66h-129v-289q0 -42 13 -63t53 -21q18 0 35 3.5t28 8.5v-68q-14 -5 -35.5 -8.5t-40.5 -3.5zM178 704v79h79v-79h-79zM30 704v79h79v-79h-79z" />
    <glyph glyph-name="uni1E6D" unicode="&#x1e6d;" horiz-adv-x="363" 
d="M237 -8q-53 0 -89 32.5t-36 96.5v312h-87v66h87v141h72v-141h129v-66h-129v-289q0 -42 13 -63t53 -21q18 0 35 3.5t28 8.5v-68q-14 -5 -35.5 -8.5t-40.5 -3.5zM134 -129v79h79v-79h-79z" />
    <glyph glyph-name="uni1E6F" unicode="&#x1e6f;" horiz-adv-x="363" 
d="M237 -8q-53 0 -89 32.5t-36 96.5v312h-87v66h87v141h72v-141h129v-66h-129v-289q0 -42 13 -63t53 -21q18 0 35 3.5t28 8.5v-68q-14 -5 -35.5 -8.5t-40.5 -3.5zM57 -119v53h234v-53h-234z" />
    <glyph glyph-name="u" unicode="u" horiz-adv-x="578" 
d="M289 -15q-66 0 -113 23t-71.5 67t-24.5 108v316h72v-300q0 -76 33.5 -111.5t103.5 -35.5t103.5 35.5t33.5 111.5v300h72v-316q0 -95 -54.5 -146.5t-154.5 -51.5z" />
    <glyph glyph-name="uacute" unicode="&#xfa;" horiz-adv-x="578" 
d="M289 -15q-66 0 -113 23t-71.5 67t-24.5 108v316h72v-300q0 -76 33.5 -111.5t103.5 -35.5t103.5 35.5t33.5 111.5v300h72v-316q0 -95 -54.5 -146.5t-154.5 -51.5zM263 564l57 115h74l-83 -115h-48z" />
    <glyph glyph-name="ubreve" unicode="&#x16d;" horiz-adv-x="578" 
d="M289 -15q-66 0 -113 23t-71.5 67t-24.5 108v316h72v-300q0 -76 33.5 -111.5t103.5 -35.5t103.5 35.5t33.5 111.5v300h72v-316q0 -95 -54.5 -146.5t-154.5 -51.5zM289 545q-32 0 -59.5 13t-47 38.5t-28.5 62.5h52q11 -30 32 -46t51 -16t50.5 16t32.5 46h52
q-7 -37 -26.5 -62.5t-47.5 -38.5t-61 -13z" />
    <glyph glyph-name="uni01D4" unicode="&#x1d4;" horiz-adv-x="578" 
d="M289 -15q-66 0 -113 23t-71.5 67t-24.5 108v316h72v-300q0 -76 33.5 -111.5t103.5 -35.5t103.5 35.5t33.5 111.5v300h72v-316q0 -95 -54.5 -146.5t-154.5 -51.5zM269 564l-81 120h56l45 -70l45 70h56l-80 -120h-41z" />
    <glyph glyph-name="ucircumflex" unicode="&#xfb;" horiz-adv-x="578" 
d="M289 -15q-66 0 -113 23t-71.5 67t-24.5 108v316h72v-300q0 -76 33.5 -111.5t103.5 -35.5t103.5 35.5t33.5 111.5v300h72v-316q0 -95 -54.5 -146.5t-154.5 -51.5zM178 564l81 120h61l80 -120h-46l-65 70l-65 -70h-46z" />
    <glyph glyph-name="uni0215" unicode="&#x215;" horiz-adv-x="578" 
d="M289 -15q-66 0 -113 23t-71.5 67t-24.5 108v316h72v-300q0 -76 33.5 -111.5t103.5 -35.5t103.5 35.5t33.5 111.5v300h72v-316q0 -95 -54.5 -146.5t-154.5 -51.5zM227 564l-83 115h73l57 -115h-47zM361 564l-83 115h73l57 -115h-47z" />
    <glyph glyph-name="udieresis" unicode="&#xfc;" horiz-adv-x="578" 
d="M289 -15q-66 0 -113 23t-71.5 67t-24.5 108v316h72v-300q0 -76 33.5 -111.5t103.5 -35.5t103.5 35.5t33.5 111.5v300h72v-316q0 -95 -54.5 -146.5t-154.5 -51.5zM323 564v79h79v-79h-79zM175 564v79h79v-79h-79z" />
    <glyph glyph-name="uni1EE5" unicode="&#x1ee5;" horiz-adv-x="587" 
d="M291 -9q-100 0 -154.5 57.5t-54.5 160.5v290h72v-293q0 -76 33.5 -112t103.5 -36q71 0 104 36t33 112v293h72v-290q0 -103 -54.5 -160.5t-154.5 -57.5zM252 -128v79h79v-79h-79z" />
    <glyph glyph-name="ugrave" unicode="&#xf9;" horiz-adv-x="578" 
d="M289 -15q-66 0 -113 23t-71.5 67t-24.5 108v316h72v-300q0 -76 33.5 -111.5t103.5 -35.5t103.5 35.5t33.5 111.5v300h72v-316q0 -95 -54.5 -146.5t-154.5 -51.5zM267 564l-83 115h73l57 -115h-47z" />
    <glyph glyph-name="uni1EE7" unicode="&#x1ee7;" horiz-adv-x="587" 
d="M291 -9q-100 0 -154.5 57.5t-54.5 160.5v290h72v-293q0 -76 33.5 -112t103.5 -36q71 0 104 36t33 112v293h72v-290q0 -103 -54.5 -160.5t-154.5 -57.5zM277 564v52q21 1 29 9t8 15q0 13 -12.5 19.5t-34.5 6.5q-8 0 -15 -0.5t-12 -1.5v43q7 2 15 2.5t16 0.5q21 0 42 -6
t35 -20.5t14 -41.5q0 -13 -5.5 -24t-17 -19t-29.5 -11v-24h-33z" />
    <glyph glyph-name="uhorn" unicode="&#x1b0;" horiz-adv-x="578" 
d="M289 -15q-66 0 -113 23t-71.5 67t-24.5 108v316h72v-300q0 -76 33.5 -111.5t103.5 -35.5t103.5 35.5t33.5 111.5v300h72v-316q0 -95 -54.5 -146.5t-154.5 -51.5zM451 447l-2 52q28 0 51 20t23 48v26h54v-28q0 -37 -18 -63.5t-46.5 -40.5t-61.5 -14z" />
    <glyph glyph-name="uni1EE9" unicode="&#x1ee9;" horiz-adv-x="578" 
d="M289 -15q-66 0 -113 23t-71.5 67t-24.5 108v316h72v-300q0 -76 33.5 -111.5t103.5 -35.5t103.5 35.5t33.5 111.5v300h72v-316q0 -95 -54.5 -146.5t-154.5 -51.5zM451 447l-2 52q28 0 51 20t23 48v26h54v-28q0 -37 -18 -63.5t-46.5 -40.5t-61.5 -14zM263 564l57 115h74
l-83 -115h-48z" />
    <glyph glyph-name="uni1EF1" unicode="&#x1ef1;" horiz-adv-x="578" 
d="M289 -15q-66 0 -113 23t-71.5 67t-24.5 108v316h72v-300q0 -76 33.5 -111.5t103.5 -35.5t103.5 35.5t33.5 111.5v300h72v-316q0 -95 -54.5 -146.5t-154.5 -51.5zM451 447l-2 52q28 0 51 20t23 48v26h54v-28q0 -37 -18 -63.5t-46.5 -40.5t-61.5 -14zM249 -129v79h79v-79
h-79z" />
    <glyph glyph-name="uni1EEB" unicode="&#x1eeb;" horiz-adv-x="578" 
d="M289 -15q-66 0 -113 23t-71.5 67t-24.5 108v316h72v-300q0 -76 33.5 -111.5t103.5 -35.5t103.5 35.5t33.5 111.5v300h72v-316q0 -95 -54.5 -146.5t-154.5 -51.5zM451 447l-2 52q28 0 51 20t23 48v26h54v-28q0 -37 -18 -63.5t-46.5 -40.5t-61.5 -14zM267 564l-83 115h73
l57 -115h-47z" />
    <glyph glyph-name="uni1EED" unicode="&#x1eed;" horiz-adv-x="578" 
d="M289 -15q-66 0 -113 23t-71.5 67t-24.5 108v316h72v-300q0 -76 33.5 -111.5t103.5 -35.5t103.5 35.5t33.5 111.5v300h72v-316q0 -95 -54.5 -146.5t-154.5 -51.5zM451 447l-2 52q28 0 51 20t23 48v26h54v-28q0 -37 -18 -63.5t-46.5 -40.5t-61.5 -14zM264 562v52
q21 1 29.5 9t8.5 15q0 13 -12.5 19.5t-35.5 6.5q-7 0 -14 -0.5t-13 -1.5v43q8 2 15.5 2.5t15.5 0.5q21 0 42 -6t35.5 -20.5t14.5 -41.5q0 -19 -12.5 -34t-40.5 -20v-24h-33z" />
    <glyph glyph-name="uni1EEF" unicode="&#x1eef;" horiz-adv-x="578" 
d="M289 -15q-66 0 -113 23t-71.5 67t-24.5 108v316h72v-300q0 -76 33.5 -111.5t103.5 -35.5t103.5 35.5t33.5 111.5v300h72v-316q0 -95 -54.5 -146.5t-154.5 -51.5zM451 447l-2 52q28 0 51 20t23 48v26h54v-28q0 -37 -18 -63.5t-46.5 -40.5t-61.5 -14zM194 544h-46
q-9 36 1 61t30.5 38t41.5 13q24 0 43 -9.5t34.5 -22t29.5 -22t29 -9.5q14 0 21.5 12.5t2.5 35.5h52q6 -29 -3 -52.5t-30 -37.5t-51 -14q-22 0 -40 9.5t-33.5 21.5t-29.5 21.5t-26 9.5q-13 0 -22.5 -13t-3.5 -42z" />
    <glyph glyph-name="uhungarumlaut" unicode="&#x171;" horiz-adv-x="578" 
d="M289 -15q-66 0 -113 23t-71.5 67t-24.5 108v316h72v-300q0 -76 33.5 -111.5t103.5 -35.5t103.5 35.5t33.5 111.5v300h72v-316q0 -95 -54.5 -146.5t-154.5 -51.5zM323 564l57 115h74l-83 -115h-48zM203 564l57 115h74l-83 -115h-48z" />
    <glyph glyph-name="uni0217" unicode="&#x217;" horiz-adv-x="578" 
d="M289 649q33 0 61 -13t47.5 -38t26.5 -63h-52q-12 30 -32.5 46t-50.5 16t-51 -16t-32 -46h-52q9 38 28.5 63t47 38t59.5 13zM289 -15q-66 0 -113 23t-71.5 67t-24.5 108v316h72v-300q0 -76 33.5 -111.5t103.5 -35.5t103.5 35.5t33.5 111.5v300h72v-316q0 -95 -54.5 -146.5
t-154.5 -51.5z" />
    <glyph glyph-name="umacron" unicode="&#x16b;" horiz-adv-x="578" 
d="M289 -15q-66 0 -113 23t-71.5 67t-24.5 108v316h72v-300q0 -76 33.5 -111.5t103.5 -35.5t103.5 35.5t33.5 111.5v300h72v-316q0 -95 -54.5 -146.5t-154.5 -51.5zM172 576v53h234v-53h-234z" />
    <glyph glyph-name="uni1E7B" unicode="&#x1e7b;" horiz-adv-x="578" 
d="M289 -15q-66 0 -113 23t-71.5 67t-24.5 108v316h72v-300q0 -76 33.5 -111.5t103.5 -35.5t103.5 35.5t33.5 111.5v300h72v-316q0 -95 -54.5 -146.5t-154.5 -51.5zM172 576v53h234v-53h-234zM323 694v79h79v-79h-79zM175 694v79h79v-79h-79z" />
    <glyph glyph-name="uni021B" unicode="&#x21b;" horiz-adv-x="345" 
d="M246 -8q-15 0 -38 4.5t-45 18t-37 42t-15 76.5v300h-87v66h87v141h72v-141h129v-66h-129v-304q0 -37 16 -53t56 -16q18 0 32.5 3.5t24.5 8.5v-68q-14 -5 -30.5 -8.5t-35.5 -3.5zM155 -193v54q19 8 27.5 23.5t11 34t2.5 32.5h59q0 -48 -16 -78t-39 -45.5t-45 -20.5z" />
    <glyph glyph-name="uogonek" unicode="&#x173;" horiz-adv-x="578" 
d="M289 -15q-66 0 -113 23t-71.5 67t-24.5 108v316h72v-300q0 -76 33.5 -111.5t103.5 -35.5t103.5 35.5t33.5 111.5v300h72v-316q0 -95 -54.5 -146.5t-154.5 -51.5zM325 -173q-40 0 -64 21.5t-24 61.5q0 25 18.5 52t54.5 42l78 -4q-40 -19 -66 -41t-26 -44q0 -18 9 -26
t25 -8q20 0 34.5 10.5t20.5 16.5v-63q-12 -7 -26.5 -12.5t-33.5 -5.5z" />
    <glyph glyph-name="uring" unicode="&#x16f;" horiz-adv-x="578" 
d="M289 -15q-66 0 -113 23t-71.5 67t-24.5 108v316h72v-300q0 -76 33.5 -111.5t103.5 -35.5t103.5 35.5t33.5 111.5v300h72v-316q0 -95 -54.5 -146.5t-154.5 -51.5zM289 535q-55 0 -78 22.5t-23 69.5t23 69.5t78 22.5q54 0 77.5 -22.5t23.5 -69.5t-23.5 -69.5t-77.5 -22.5z
M289 578q32 0 43 11.5t11 37.5t-11 37t-43 11t-43.5 -11t-11.5 -37t11.5 -37.5t43.5 -11.5z" />
    <glyph glyph-name="utilde" unicode="&#x169;" horiz-adv-x="578" 
d="M289 -15q-66 0 -113 23t-71.5 67t-24.5 108v316h72v-300q0 -76 33.5 -111.5t103.5 -35.5t103.5 35.5t33.5 111.5v300h72v-316q0 -95 -54.5 -146.5t-154.5 -51.5zM194 544h-46q-9 36 1 61t30.5 38t41.5 13q24 0 43 -9.5t34.5 -22t29.5 -22t29 -9.5q14 0 21.5 12.5
t2.5 35.5h52q6 -29 -3 -52.5t-30 -37.5t-51 -14q-22 0 -40 9.5t-33.5 21.5t-29.5 21.5t-26 9.5q-13 0 -22.5 -13t-3.5 -42z" />
    <glyph glyph-name="uni1E79" unicode="&#x1e79;" horiz-adv-x="578" 
d="M289 -15q-66 0 -113 23t-71.5 67t-24.5 108v316h72v-300q0 -76 33.5 -111.5t103.5 -35.5t103.5 35.5t33.5 111.5v300h72v-316q0 -95 -54.5 -146.5t-154.5 -51.5zM194 544h-46q-9 36 1 61t30.5 38t41.5 13q24 0 43 -9.5t34.5 -22t29.5 -22t29 -9.5q14 0 21.5 12.5
t2.5 35.5h52q6 -29 -3 -52.5t-30 -37.5t-51 -14q-22 0 -40 9.5t-33.5 21.5t-29.5 21.5t-26 9.5q-13 0 -22.5 -13t-3.5 -42zM263 723l57 115h74l-83 -115h-48z" />
    <glyph glyph-name="v" unicode="v" horiz-adv-x="566" 
d="M246 0l-211 499h77l184 -437l-16 -4l179 441h72l-212 -499h-73z" />
    <glyph glyph-name="w" unicode="w" horiz-adv-x="796" 
d="M201 0l-166 499h76l139 -445l-19 -8l132 453h69l133 -441h-14l139 441h71l-166 -499h-73l-133 442l13 -12l-128 -430h-73z" />
    <glyph glyph-name="wacute" unicode="&#x1e83;" horiz-adv-x="796" 
d="M201 0l-166 499h76l139 -445l-19 -8l132 453h69l133 -441h-14l139 441h71l-166 -499h-73l-133 442l13 -12l-128 -430h-73zM373 564l57 115h74l-83 -115h-48z" />
    <glyph glyph-name="wcircumflex" unicode="&#x175;" horiz-adv-x="796" 
d="M201 0l-166 499h76l139 -445l-19 -8l132 453h69l133 -441h-14l139 441h71l-166 -499h-73l-133 442l13 -12l-128 -430h-73zM288 564l81 120h61l80 -120h-46l-65 70l-65 -70h-46z" />
    <glyph glyph-name="wdieresis" unicode="&#x1e85;" horiz-adv-x="796" 
d="M201 0l-166 499h76l139 -445l-19 -8l132 453h69l133 -441h-14l139 441h71l-166 -499h-73l-133 442l13 -12l-128 -430h-73zM433 564v79h79v-79h-79zM285 564v79h79v-79h-79z" />
    <glyph glyph-name="wgrave" unicode="&#x1e81;" horiz-adv-x="796" 
d="M201 0l-166 499h76l139 -445l-19 -8l132 453h69l133 -441h-14l139 441h71l-166 -499h-73l-133 442l13 -12l-128 -430h-73zM377 564l-83 115h73l57 -115h-47z" />
    <glyph glyph-name="x" unicode="x" horiz-adv-x="532" 
d="M280 218l-164 -218h-81l202 272zM497 0h-92l-365 499h91zM247 279l165 220h83l-208 -281z" />
    <glyph glyph-name="y" unicode="y" horiz-adv-x="540" 
d="M134 -193q-15 0 -27 3t-20 6v66q7 -3 18 -6t25 -3q34 0 55 19t35.5 51t26.5 71v-29l-212 514h82l166 -426h-15l165 426h72l-214 -548q-23 -59 -50.5 -90t-55 -42.5t-51.5 -11.5z" />
    <glyph glyph-name="yacute" unicode="&#xfd;" horiz-adv-x="540" 
d="M134 -193q-15 0 -27 3t-20 6v66q7 -3 18 -6t25 -3q34 0 55 19t35.5 51t26.5 71v-29l-212 514h82l166 -426h-15l165 426h72l-214 -548q-23 -59 -50.5 -90t-55 -42.5t-51.5 -11.5zM249 564l57 115h74l-83 -115h-48z" />
    <glyph glyph-name="ycircumflex" unicode="&#x177;" horiz-adv-x="540" 
d="M134 -193q-15 0 -27 3t-20 6v66q7 -3 18 -6t25 -3q34 0 55 19t35.5 51t26.5 71v-29l-212 514h82l166 -426h-15l165 426h72l-214 -548q-23 -59 -50.5 -90t-55 -42.5t-51.5 -11.5zM164 564l81 120h61l80 -120h-46l-65 70l-65 -70h-46z" />
    <glyph glyph-name="ydieresis" unicode="&#xff;" horiz-adv-x="540" 
d="M134 -193q-15 0 -27 3t-20 6v66q7 -3 18 -6t25 -3q34 0 55 19t35.5 51t26.5 71v-29l-212 514h82l166 -426h-15l165 426h72l-214 -548q-23 -59 -50.5 -90t-55 -42.5t-51.5 -11.5zM309 564v79h79v-79h-79zM161 564v79h79v-79h-79z" />
    <glyph glyph-name="uni1E8F" unicode="&#x1e8f;" horiz-adv-x="540" 
d="M134 -193q-15 0 -27 3t-20 6v66q7 -3 18 -6t25 -3q34 0 55 19t35.5 51t26.5 71v-29l-212 514h82l166 -426h-15l165 426h72l-214 -548q-23 -59 -50.5 -90t-55 -42.5t-51.5 -11.5zM235 564v79h79v-79h-79z" />
    <glyph glyph-name="uni1EF5" unicode="&#x1ef5;" horiz-adv-x="540" 
d="M134 -193q-15 0 -27 3t-20 6v66q7 -3 18 -6t25 -3q34 0 55 19t35.5 51t26.5 71v-29l-212 514h82l166 -426h-15l165 426h72l-214 -548q-23 -59 -50.5 -90t-55 -42.5t-51.5 -11.5zM358 -129v79h79v-79h-79z" />
    <glyph glyph-name="ygrave" unicode="&#x1ef3;" horiz-adv-x="540" 
d="M134 -193q-15 0 -27 3t-20 6v66q7 -3 18 -6t25 -3q34 0 55 19t35.5 51t26.5 71v-29l-212 514h82l166 -426h-15l165 426h72l-214 -548q-23 -59 -50.5 -90t-55 -42.5t-51.5 -11.5zM253 564l-83 115h73l57 -115h-47z" />
    <glyph glyph-name="uni1EF7" unicode="&#x1ef7;" horiz-adv-x="540" 
d="M134 -193q-15 0 -27 3t-20 6v66q7 -3 18 -6t25 -3q34 0 55 19t35.5 51t26.5 71v-29l-212 514h82l166 -426h-15l165 426h72l-214 -548q-23 -59 -50.5 -90t-55 -42.5t-51.5 -11.5zM250 562v52q21 1 29.5 9t8.5 15q0 13 -12.5 19.5t-35.5 6.5q-7 0 -14 -0.5t-13 -1.5v43
q8 2 15.5 2.5t15.5 0.5q21 0 42 -6t35.5 -20.5t14.5 -41.5q0 -19 -12.5 -34t-40.5 -20v-24h-33z" />
    <glyph glyph-name="uni0233" unicode="&#x233;" horiz-adv-x="540" 
d="M134 -193q-15 0 -27 3t-20 6v66q7 -3 18 -6t25 -3q34 0 55 19t35.5 51t26.5 71v-29l-212 514h82l166 -426h-15l165 426h72l-214 -548q-23 -59 -50.5 -90t-55 -42.5t-51.5 -11.5zM158 576v53h234v-53h-234z" />
    <glyph glyph-name="uni1EF9" unicode="&#x1ef9;" horiz-adv-x="540" 
d="M134 -193q-15 0 -27 3t-20 6v66q7 -3 18 -6t25 -3q34 0 55 19t35.5 51t26.5 71v-29l-212 514h82l166 -426h-15l165 426h72l-214 -548q-23 -59 -50.5 -90t-55 -42.5t-51.5 -11.5zM180 544h-46q-9 36 1 61t30.5 38t41.5 13q24 0 43 -9.5t34.5 -22t29.5 -22t29 -9.5
q14 0 21.5 12.5t2.5 35.5h52q6 -29 -3 -52.5t-30 -37.5t-51 -14q-22 0 -40 9.5t-33.5 21.5t-29.5 21.5t-26 9.5q-13 0 -22.5 -13t-3.5 -42z" />
    <glyph glyph-name="z" unicode="z" horiz-adv-x="455" 
d="M45 0v65l296 394l15 -22h-304v62h358v-63l-296 -391v19h296v-64h-365z" />
    <glyph glyph-name="zacute" unicode="&#x17a;" horiz-adv-x="455" 
d="M45 0v65l296 394l15 -22h-304v62h358v-63l-296 -391v19h296v-64h-365zM202 564l57 115h74l-83 -115h-48z" />
    <glyph glyph-name="zcaron" unicode="&#x17e;" horiz-adv-x="455" 
d="M45 0v65l296 394l15 -22h-304v62h358v-63l-296 -391v19h296v-64h-365zM208 564l-81 120h56l45 -70l45 70h56l-80 -120h-41z" />
    <glyph glyph-name="zdotaccent" unicode="&#x17c;" horiz-adv-x="455" 
d="M45 0v65l296 394l15 -22h-304v62h358v-63l-296 -391v19h296v-64h-365zM188 564v79h79v-79h-79z" />
    <glyph glyph-name="ordfeminine" unicode="&#xaa;" horiz-adv-x="394" 
d="M192 389q-13 0 -32.5 3t-39 12t-32 27t-12.5 47q0 53 33 72t83 19q31 0 52.5 -5l21.5 -5q0 40 -20 58.5t-58 18.5q-30 0 -53 -7t-31 -10v39q15 6 38 11.5t48 5.5q59 0 87.5 -29t28.5 -86v-84q0 -28 -12.5 -45.5t-31 -26.5t-37.5 -12t-33 -3zM192 426q26 0 50 9.5t24 41.5
v46l-21.5 5t-44.5 5q-17 0 -36.5 -3t-33.5 -14.5t-14 -36.5q0 -22 12 -33.5t29.5 -15.5t34.5 -4z" />
    <glyph glyph-name="ordmasculine" unicode="&#xba;" horiz-adv-x="417" 
d="M206 389q-29 0 -59.5 11t-50.5 42t-20 90q0 60 20 91t50.5 42t59.5 11q30 0 60 -11t50 -42t20 -91q0 -59 -20 -90t-50 -42t-60 -11zM206 426q48 0 69 25.5t21 80.5q0 56 -21 81.5t-69 25.5q-47 0 -68.5 -25.5t-21.5 -81.5q0 -55 21.5 -80.5t68.5 -25.5z" />
    <glyph glyph-name="pi" unicode="&#x3c0;" horiz-adv-x="622" 
d="M142 0v433h-109v66h556v-66h-109v-433h-66v433h-206v-433h-66z" />
    <glyph glyph-name="zero" unicode="0" horiz-adv-x="646" 
d="M323 -11q-130 0 -196.5 86t-66.5 256t66.5 256t196.5 86q131 0 197 -86t66 -256t-66 -256t-197 -86zM323 55q33 0 67 9t62 37t45 83t17 147t-17 147t-45 82.5t-62 37t-67 9.5t-67 -9.5t-62 -37t-45 -82.5t-17 -147t17 -147t45 -83t62 -37t67 -9z" />
    <glyph glyph-name="one" unicode="1" horiz-adv-x="451" 
d="M236 0v592l-133 -88v85l123 78h82v-667h-72z" />
    <glyph glyph-name="two" unicode="2" horiz-adv-x="581" 
d="M77 0v63q34 25 78.5 62t90 81.5t84 93t62.5 96.5t24 92q0 27 -12 53.5t-46 44.5t-99 18q-60 0 -104.5 -20t-70.5 -38v79q32 20 77.5 35.5t103.5 15.5q82 0 131 -28t70.5 -71t21.5 -89q0 -45 -22.5 -94t-59 -98t-80.5 -95t-88 -85.5t-80 -68.5l-21 25h361v-72h-421z" />
    <glyph glyph-name="three" unicode="3" horiz-adv-x="583" 
d="M259 -8q-55 0 -99.5 12.5t-78.5 29.5v74q31 -17 73.5 -30.5t95.5 -13.5q89 0 136 33t47 95t-48 95t-139 33h-73v69h76q73 0 111.5 27.5t38.5 79.5q0 35 -18 59t-53.5 36.5t-86.5 12.5q-45 0 -81 -10.5t-63 -24.5v73q30 14 68 24t84 10q62 0 104.5 -15.5t68.5 -41.5
t37.5 -58t11.5 -65q0 -37 -13 -63t-30 -42t-30 -23l-13 -7l18 -9.5t42 -30t42 -53t18 -78.5q0 -36 -13 -71t-42 -64t-76 -46t-115 -17z" />
    <glyph glyph-name="four" unicode="4" horiz-adv-x="591" 
d="M362 0v200h-324v77l315 390h81v-400h95v-67h-95v-200h-72zM118 267h244v297z" />
    <glyph glyph-name="five" unicode="5" horiz-adv-x="566" 
d="M294 -8q-67 0 -113.5 12.5t-77.5 28.5v75q14 -8 38.5 -19t61.5 -19t86 -8q51 0 80.5 13.5t43.5 35t18 46t4 47.5q0 63 -21.5 92.5t-55 38.5t-69.5 9q-53 0 -88 -7.5t-52 -15.5l-17 -8l-45 46l34 308h343v-71h-281l-19 -215l-71 -12q38 23 92 35t109 12q36 0 73.5 -9
t69 -31.5t50.5 -64t19 -107.5t-19 -107.5t-50.5 -64t-69 -31.5t-73.5 -9z" />
    <glyph glyph-name="six" unicode="6" horiz-adv-x="583" 
d="M292 -8q-113 0 -170 78.5t-57 234.5q0 100 22.5 167.5t58.5 108t77 61t80 27.5t66 7q28 0 52.5 -3.5t44.5 -9.5v-67q-19 5 -41 8.5t-48 3.5q-17 0 -46.5 -6t-62.5 -22t-63 -47t-49 -80.5t-19 -123.5q0 -86 11.5 -139.5t33 -81.5t49.5 -38t61 -10q54 0 85.5 19t46 46
t19 53t4.5 40q0 68 -40 105t-115 37q-45 0 -79.5 -13.5t-57 -29.5t-31.5 -25l1 80q9 6 25.5 15.5t38.5 18.5t48 15t55 6q105 0 166 -56.5t61 -153.5q0 -39 -12 -78.5t-39 -73t-70 -53.5t-106 -20z" />
    <glyph glyph-name="seven" unicode="7" horiz-adv-x="574" 
d="M156 0l299 618l7 -23h-392v72h455v-67l-289 -600h-80z" />
    <glyph glyph-name="eight" unicode="8" horiz-adv-x="582" 
d="M292 -8q-64 0 -108 18.5t-71 49t-39.5 66.5t-12.5 72q0 46 17.5 77.5t40 50t40 26.5l17.5 8l-13.5 7.5t-31.5 24.5t-31.5 44.5t-13.5 66.5q0 42 20 82t65.5 65.5t120.5 25.5q76 0 121 -25.5t65 -65.5t20 -82q0 -40 -13 -67.5t-30.5 -44t-30.5 -23.5l-13 -7l17 -8.5
t39 -27.5t39 -50t17 -77q0 -36 -12 -72t-39 -66.5t-71.5 -49t-108.5 -18.5zM292 60q56 0 88 16.5t47 40.5t19.5 46.5t4.5 34.5q0 40 -18.5 67.5t-53.5 42t-87 14.5q-51 0 -86.5 -14.5t-54 -42t-18.5 -67.5q0 -12 4.5 -34.5t20 -46.5t47.5 -40.5t87 -16.5zM292 388
q42 0 72 14t46 39.5t16 61.5q0 43 -21 64.5t-51.5 29.5t-61.5 8q-30 0 -61 -8t-52 -29.5t-21 -64.5q0 -36 16 -61.5t46 -39.5t72 -14z" />
    <glyph glyph-name="nine" unicode="9" horiz-adv-x="587" 
d="M215 -8q-28 0 -52.5 3.5t-44.5 9.5v67q19 -4 41.5 -8t47.5 -4q17 0 46.5 6t62.5 22t63 47t49 81t19 123q0 86 -11.5 139.5t-33 81.5t-49.5 38t-61 10q-54 0 -85.5 -19t-46 -46t-19 -53t-4.5 -40q0 -68 40 -105t115 -37q45 0 79.5 13.5t57.5 30t31 24.5l-1 -80
q-9 -6 -25.5 -15.5t-38.5 -18.5t-48 -15t-55 -6q-105 0 -166 56.5t-61 153.5q0 39 12 78.5t39 73t70 53.5t106 20q113 0 170 -78.5t57 -234.5q0 -100 -22.5 -167.5t-58.5 -108t-77 -61t-80 -27.5t-66 -7z" />
    <glyph glyph-name="zero.inferior" unicode="&#x2080;" horiz-adv-x="379" 
d="M190 -156q-70 0 -106 46.5t-36 137.5q0 92 36 138t106 46t105.5 -46t35.5 -138q0 -91 -35.5 -137.5t-105.5 -46.5zM190 -106q13 0 31.5 9t33.5 38t15 87q0 59 -15 87.5t-33.5 37.5t-31.5 9t-32 -9t-34 -37.5t-15 -87.5q0 -58 15 -87t34 -38t32 -9z" />
    <glyph glyph-name="one.inferior" unicode="&#x2081;" horiz-adv-x="234" 
d="M95 -149v318l13 -41l-55 -36v76l66 42h44v-359h-68z" />
    <glyph glyph-name="two.inferior" unicode="&#x2082;" horiz-adv-x="328" 
d="M53 -149v34q23 17 49 41.5t49.5 54t38.5 60.5t15 61q0 21 -17.5 36t-47.5 15q-24 0 -46.5 -10t-36.5 -20v64q17 11 41.5 19t55.5 8q44 0 70.5 -15t38 -38t11.5 -47q0 -41 -23 -82.5t-57 -78t-67 -63.5l-10 20h162v-59h-226z" />
    <glyph glyph-name="three.inferior" unicode="&#x2083;" horiz-adv-x="323" 
d="M149 -153q-29 0 -53 6.5t-43 15.5v62q17 -9 40 -16.5t51 -7.5q26 0 48 12.5t22 43.5q0 27 -22.5 38.5t-49.5 11.5h-39v57h41q17 0 34 10t17 38q0 15 -15.5 25t-40.5 10q-24 0 -43.5 -5.5t-33.5 -13.5v62q17 8 37 13t45 5q44 0 70 -14.5t37.5 -36.5t11.5 -45
q0 -27 -11.5 -43t-23 -23l-11.5 -7q9 -6 24.5 -14.5t27.5 -26.5t12 -51q0 -19 -7 -38t-22.5 -34.5t-41 -24.5t-61.5 -9z" />
    <glyph glyph-name="four.inferior" unicode="&#x2084;" horiz-adv-x="328" 
d="M173 -149v88h-144v61l170 210h43v-215h51v-56h-51v-88h-69zM92 -5h81v146l50 13z" />
    <glyph glyph-name="five.inferior" unicode="&#x2085;" horiz-adv-x="319" 
d="M166 -153q-36 0 -61 6.5t-42 15.5v60q11 -7 34 -16t51 -9q29 0 46.5 11t17.5 38q0 28 -11.5 41t-28 17.5t-31.5 4.5q-26 0 -44 -8.5l-18 -8.5l-24 45l18 166h184v-59h-131l-10 -86q14 4 28.5 6.5t35.5 2.5q19 0 42.5 -8.5t40.5 -33t17 -71.5t-17.5 -71.5t-44 -33.5
t-52.5 -9z" />
    <glyph glyph-name="six.inferior" unicode="&#x2086;" horiz-adv-x="338" 
d="M178 -153q-83 0 -117.5 42.5t-34.5 125.5q0 68 18.5 107.5t48.5 59.5t63.5 26t63.5 6q14 0 27.5 -2t24.5 -4v-57q-10 3 -22 5t-26 2q-12 0 -31 -3t-39.5 -12.5t-36 -30t-20.5 -55.5q10 7 30 15t51 8q56 0 89 -30t33 -82q0 -28 -11.5 -56t-38.5 -46.5t-72 -18.5zM168 -97
q35 0 49 17.5t14 47.5q0 22 -19 39t-47 17q-26 0 -44.5 -11.5t-25.5 -18.5q1 -40 14 -59.5t30 -25.5t29 -6z" />
    <glyph glyph-name="seven.inferior" unicode="&#x2087;" horiz-adv-x="315" 
d="M76 -149l158 353l30 -53h-224v59h244v-37l-145 -322h-63z" />
    <glyph glyph-name="eight.inferior" unicode="&#x2088;" horiz-adv-x="332" 
d="M167 -153q-46 0 -73 17t-39 43t-12 51q0 33 15.5 52t30.5 27l15 8l-12 7.5t-24 24.5t-12 45q0 22 10.5 43t35 35t65.5 14t65 -14t34.5 -35t10.5 -43q0 -29 -11.5 -46t-23 -24l-11.5 -7l15 -8t30 -27t15 -52q0 -25 -12 -51t-39 -43t-73 -17zM167 -96q32 0 43.5 16.5
t11.5 37.5q0 32 -17 46.5t-38 14.5q-22 0 -38.5 -14.5t-16.5 -46.5q0 -21 15 -37.5t40 -16.5zM167 70q22 0 32 14t10 30q0 25 -12.5 33.5t-29.5 8.5q-13 0 -27 -8.5t-14 -34.5q0 -15 9.5 -29t31.5 -14z" />
    <glyph glyph-name="nine.inferior" unicode="&#x2089;" horiz-adv-x="338" 
d="M110 -153q-15 0 -28.5 2t-24.5 5v56q11 -3 23 -5t25 -2q12 0 31 3t39.5 12.5t36.5 30t20 55.5q-10 -7 -30 -15t-51 -8q-56 0 -89 30t-33 82q0 28 12 56t38.5 46.5t71.5 18.5q83 0 117.5 -42t34.5 -126q0 -67 -18.5 -107t-48 -60t-63 -26t-63.5 -6zM151 37q36 0 56 11.5
t27 18.5q0 41 -12 60.5t-31 25t-40 5.5q-23 0 -34.5 -12t-15 -27.5t-3.5 -25.5q0 -22 17.5 -39t35.5 -17z" />
    <glyph glyph-name="zero.superior" unicode="&#x2070;" horiz-adv-x="379" 
d="M190 457q-70 0 -106 46.5t-36 137.5q0 92 36 138t106 46t105.5 -46t35.5 -138q0 -91 -35.5 -137.5t-105.5 -46.5zM190 507q13 0 31.5 9t33.5 38t15 87q0 59 -15 87.5t-33.5 37.5t-31.5 9t-32 -9t-34 -37.5t-15 -87.5q0 -58 15 -87t34 -38t32 -9z" />
    <glyph glyph-name="one.superior" unicode="&#xb9;" horiz-adv-x="234" 
d="M95 463v318l13 -41l-55 -36v76l66 42h44v-359h-68z" />
    <glyph glyph-name="two.superior" unicode="&#xb2;" horiz-adv-x="328" 
d="M53 463v34q23 17 49 41.5t49.5 54t38.5 60.5t15 61q0 21 -17.5 36t-47.5 15q-24 0 -46.5 -10t-36.5 -20v64q17 11 41.5 19t55.5 8q44 0 70.5 -15t38 -38t11.5 -47q0 -41 -23 -82.5t-57 -78t-67 -63.5l-10 20h162v-59h-226z" />
    <glyph glyph-name="three.superior" unicode="&#xb3;" horiz-adv-x="323" 
d="M149 459q-29 0 -53 6.5t-43 15.5v62q17 -9 40 -16.5t51 -7.5q26 0 48 12.5t22 43.5q0 27 -22.5 38.5t-49.5 11.5h-39v57h41q17 0 34 10t17 38q0 15 -15.5 25t-40.5 10q-24 0 -43.5 -5.5t-33.5 -13.5v62q17 8 37 13t45 5q44 0 70 -14.5t37.5 -36.5t11.5 -45
q0 -27 -11.5 -43t-23 -23l-11.5 -7q9 -6 24.5 -14.5t27.5 -26.5t12 -51q0 -19 -7 -38t-22.5 -34.5t-41 -24.5t-61.5 -9z" />
    <glyph glyph-name="four.superior" unicode="&#x2074;" horiz-adv-x="328" 
d="M173 463v88h-144v61l170 210h43v-215h51v-56h-51v-88h-69zM92 607h81v146l50 13z" />
    <glyph glyph-name="five.superior" unicode="&#x2075;" horiz-adv-x="319" 
d="M166 459q-36 0 -61 6.5t-42 15.5v60q11 -7 34 -16t51 -9q29 0 46.5 11t17.5 38q0 28 -11.5 41t-28 17.5t-31.5 4.5q-26 0 -44 -8.5l-18 -8.5l-24 45l18 166h184v-59h-131l-10 -86q14 4 28.5 6.5t35.5 2.5q19 0 42.5 -8.5t40.5 -33t17 -71.5t-17.5 -71.5t-44 -33.5
t-52.5 -9z" />
    <glyph glyph-name="six.superior" unicode="&#x2076;" horiz-adv-x="338" 
d="M178 459q-83 0 -117.5 42.5t-34.5 125.5q0 68 18.5 107.5t48.5 59.5t63.5 26t63.5 6q14 0 27.5 -2t24.5 -4v-57q-10 3 -22 5t-26 2q-12 0 -31 -3t-39.5 -12.5t-36 -30t-20.5 -55.5q10 7 30 15t51 8q56 0 89 -30t33 -82q0 -28 -11.5 -56t-38.5 -46.5t-72 -18.5zM168 515
q35 0 49 17.5t14 47.5q0 22 -19 39t-47 17q-26 0 -44.5 -11.5t-25.5 -18.5q1 -40 14 -59.5t30 -25.5t29 -6z" />
    <glyph glyph-name="seven.superior" unicode="&#x2077;" horiz-adv-x="315" 
d="M76 463l158 353l30 -53h-224v59h244v-37l-145 -322h-63z" />
    <glyph glyph-name="eight.superior" unicode="&#x2078;" horiz-adv-x="332" 
d="M167 459q-46 0 -73 17t-39 43t-12 51q0 33 15.5 52t30.5 27l15 8l-12 7.5t-24 24.5t-12 45q0 22 10.5 43t35 35t65.5 14t65 -14t34.5 -35t10.5 -43q0 -29 -11.5 -46t-23 -24l-11.5 -7l15 -8t30 -27t15 -52q0 -25 -12 -51t-39 -43t-73 -17zM167 516q32 0 43.5 16.5
t11.5 37.5q0 32 -17 46.5t-38 14.5q-22 0 -38.5 -14.5t-16.5 -46.5q0 -21 15 -37.5t40 -16.5zM167 682q22 0 32 14t10 30q0 25 -12.5 33.5t-29.5 8.5q-13 0 -27 -8.5t-14 -34.5q0 -15 9.5 -29t31.5 -14z" />
    <glyph glyph-name="nine.superior" unicode="&#x2079;" horiz-adv-x="338" 
d="M110 459q-15 0 -28.5 2t-24.5 5v56q11 -3 23 -5t25 -2q12 0 31 3t39.5 12.5t36.5 30t20 55.5q-10 -7 -30 -15t-51 -8q-56 0 -89 30t-33 82q0 28 12 56t38.5 46.5t71.5 18.5q83 0 117.5 -42t34.5 -126q0 -67 -18.5 -107t-48 -60t-63 -26t-63.5 -6zM151 649q36 0 56 11.5
t27 18.5q0 41 -12 60.5t-31 25t-40 5.5q-23 0 -34.5 -12t-15 -27.5t-3.5 -25.5q0 -22 17.5 -39t35.5 -17z" />
    <glyph glyph-name="zero.zero" horiz-adv-x="646" 
d="M323 -11q-130 0 -196.5 86t-66.5 256t66.5 256t196.5 86q131 0 197 -86t66 -256t-66 -256t-197 -86zM323 55q33 0 67 9t62 37t45 83t17 147t-17 147t-45 82.5t-62 37t-67 9.5t-67 -9.5t-62 -37t-45 -82.5t-17 -147t17 -147t45 -83t62 -37t67 -9zM94 -98l367 854h66
l-368 -854h-65z" />
    <glyph glyph-name="zero.dnom" horiz-adv-x="379" 
d="M190 -5q-70 0 -106 46.5t-36 137.5q0 92 36 138t106 46t105.5 -46t35.5 -138q0 -91 -35.5 -137.5t-105.5 -46.5zM190 45q13 0 31.5 9t33.5 38t15 87q0 59 -15 87.5t-33.5 37.5t-31.5 9t-32 -9t-34 -37.5t-15 -87.5q0 -58 15 -87t34 -38t32 -9z" />
    <glyph glyph-name="one.dnom" horiz-adv-x="234" 
d="M95 1v318l13 -41l-55 -36v76l66 42h44v-359h-68z" />
    <glyph glyph-name="two.dnom" horiz-adv-x="328" 
d="M53 1v34q23 17 49 41.5t49.5 54t38.5 60.5t15 61q0 21 -17.5 36t-47.5 15q-24 0 -46.5 -10t-36.5 -20v64q17 11 41.5 19t55.5 8q44 0 70.5 -15t38 -38t11.5 -47q0 -41 -23 -82.5t-57 -78t-67 -63.5l-10 20h162v-59h-226z" />
    <glyph glyph-name="three.dnom" horiz-adv-x="323" 
d="M149 -3q-29 0 -53 6.5t-43 15.5v62q17 -9 40 -16.5t51 -7.5q26 0 48 12.5t22 43.5q0 27 -22.5 38.5t-49.5 11.5h-39v57h41q17 0 34 10t17 38q0 15 -15.5 25t-40.5 10q-24 0 -43.5 -5.5t-33.5 -13.5v62q17 8 37 13t45 5q44 0 70 -14.5t37.5 -36.5t11.5 -45
q0 -27 -11.5 -43t-23 -23l-11.5 -7q9 -6 24.5 -14.5t27.5 -26.5t12 -51q0 -19 -7 -38t-22.5 -34.5t-41 -24.5t-61.5 -9z" />
    <glyph glyph-name="four.dnom" horiz-adv-x="328" 
d="M173 1v88h-144v61l170 210h43v-215h51v-56h-51v-88h-69zM92 145h81v146l50 13z" />
    <glyph glyph-name="five.dnom" horiz-adv-x="319" 
d="M166 -3q-36 0 -61 6.5t-42 15.5v60q11 -7 34 -16t51 -9q29 0 46.5 11t17.5 38q0 28 -11.5 41t-28 17.5t-31.5 4.5q-26 0 -44 -8.5l-18 -8.5l-24 45l18 166h184v-59h-131l-10 -86q14 4 28.5 6.5t35.5 2.5q19 0 42.5 -8.5t40.5 -33t17 -71.5t-17.5 -71.5t-44 -33.5
t-52.5 -9z" />
    <glyph glyph-name="six.dnom" horiz-adv-x="338" 
d="M178 -3q-83 0 -117.5 42.5t-34.5 125.5q0 68 18.5 107.5t48.5 59.5t63.5 26t63.5 6q14 0 27.5 -2t24.5 -4v-57q-10 3 -22 5t-26 2q-12 0 -31 -3t-39.5 -12.5t-36 -30t-20.5 -55.5q10 7 30 15t51 8q56 0 89 -30t33 -82q0 -28 -11.5 -56t-38.5 -46.5t-72 -18.5zM168 53
q35 0 49 17.5t14 47.5q0 22 -19 39t-47 17q-26 0 -44.5 -11.5t-25.5 -18.5q1 -40 14 -59.5t30 -25.5t29 -6z" />
    <glyph glyph-name="seven.dnom" horiz-adv-x="315" 
d="M76 1l158 353l30 -53h-224v59h244v-37l-145 -322h-63z" />
    <glyph glyph-name="eight.dnom" horiz-adv-x="332" 
d="M167 -3q-46 0 -73 17t-39 43t-12 51q0 33 15.5 52t30.5 27l15 8l-12 7.5t-24 24.5t-12 45q0 22 10.5 43t35 35t65.5 14t65 -14t34.5 -35t10.5 -43q0 -29 -11.5 -46t-23 -24l-11.5 -7l15 -8t30 -27t15 -52q0 -25 -12 -51t-39 -43t-73 -17zM167 54q32 0 43.5 16.5
t11.5 37.5q0 32 -17 46.5t-38 14.5q-22 0 -38.5 -14.5t-16.5 -46.5q0 -21 15 -37.5t40 -16.5zM167 220q22 0 32 14t10 30q0 25 -12.5 33.5t-29.5 8.5q-13 0 -27 -8.5t-14 -34.5q0 -15 9.5 -29t31.5 -14z" />
    <glyph glyph-name="nine.dnom" horiz-adv-x="338" 
d="M110 -3q-15 0 -28.5 2t-24.5 5v56q11 -3 23 -5t25 -2q12 0 31 3t39.5 12.5t36.5 30t20 55.5q-10 -7 -30 -15t-51 -8q-56 0 -89 30t-33 82q0 28 12 56t38.5 46.5t71.5 18.5q83 0 117.5 -42t34.5 -126q0 -67 -18.5 -107t-48 -60t-63 -26t-63.5 -6zM151 187q36 0 56 11.5
t27 18.5q0 41 -12 60.5t-31 25t-40 5.5q-23 0 -34.5 -12t-15 -27.5t-3.5 -25.5q0 -22 17.5 -39t35.5 -17z" />
    <glyph glyph-name="zero.numr" horiz-adv-x="379" 
d="M190 309q-70 0 -106 46.5t-36 137.5q0 92 36 138t106 46t105.5 -46t35.5 -138q0 -91 -35.5 -137.5t-105.5 -46.5zM190 359q13 0 31.5 9t33.5 38t15 87q0 59 -15 87.5t-33.5 37.5t-31.5 9t-32 -9t-34 -37.5t-15 -87.5q0 -58 15 -87t34 -38t32 -9z" />
    <glyph glyph-name="one.numr" horiz-adv-x="234" 
d="M95 315v318l13 -41l-55 -36v76l66 42h44v-359h-68z" />
    <glyph glyph-name="two.numr" horiz-adv-x="328" 
d="M53 315v34q23 17 49 41.5t49.5 54t38.5 60.5t15 61q0 21 -17.5 36t-47.5 15q-24 0 -46.5 -10t-36.5 -20v64q17 11 41.5 19t55.5 8q44 0 70.5 -15t38 -38t11.5 -47q0 -41 -23 -82.5t-57 -78t-67 -63.5l-10 20h162v-59h-226z" />
    <glyph glyph-name="three.numr" horiz-adv-x="323" 
d="M149 311q-29 0 -53 6.5t-43 15.5v62q17 -9 40 -16.5t51 -7.5q26 0 48 12.5t22 43.5q0 27 -22.5 38.5t-49.5 11.5h-39v57h41q17 0 34 10t17 38q0 15 -15.5 25t-40.5 10q-24 0 -43.5 -5.5t-33.5 -13.5v62q17 8 37 13t45 5q44 0 70 -14.5t37.5 -36.5t11.5 -45
q0 -27 -11.5 -43t-23 -23l-11.5 -7q9 -6 24.5 -14.5t27.5 -26.5t12 -51q0 -19 -7 -38t-22.5 -34.5t-41 -24.5t-61.5 -9z" />
    <glyph glyph-name="four.numr" horiz-adv-x="328" 
d="M173 315v88h-144v61l170 210h43v-215h51v-56h-51v-88h-69zM92 459h81v146l50 13z" />
    <glyph glyph-name="five.numr" horiz-adv-x="319" 
d="M166 311q-36 0 -61 6.5t-42 15.5v60q11 -7 34 -16t51 -9q29 0 46.5 11t17.5 38q0 28 -11.5 41t-28 17.5t-31.5 4.5q-26 0 -44 -8.5l-18 -8.5l-24 45l18 166h184v-59h-131l-10 -86q14 4 28.5 6.5t35.5 2.5q19 0 42.5 -8.5t40.5 -33t17 -71.5t-17.5 -71.5t-44 -33.5
t-52.5 -9z" />
    <glyph glyph-name="six.numr" horiz-adv-x="338" 
d="M178 311q-83 0 -117.5 42.5t-34.5 125.5q0 68 18.5 107.5t48.5 59.5t63.5 26t63.5 6q14 0 27.5 -2t24.5 -4v-57q-10 3 -22 5t-26 2q-12 0 -31 -3t-39.5 -12.5t-36 -30t-20.5 -55.5q10 7 30 15t51 8q56 0 89 -30t33 -82q0 -28 -11.5 -56t-38.5 -46.5t-72 -18.5zM168 367
q35 0 49 17.5t14 47.5q0 22 -19 39t-47 17q-26 0 -44.5 -11.5t-25.5 -18.5q1 -40 14 -59.5t30 -25.5t29 -6z" />
    <glyph glyph-name="seven.numr" horiz-adv-x="315" 
d="M76 315l158 353l30 -53h-224v59h244v-37l-145 -322h-63z" />
    <glyph glyph-name="eight.numr" horiz-adv-x="332" 
d="M167 311q-46 0 -73 17t-39 43t-12 51q0 33 15.5 52t30.5 27l15 8l-12 7.5t-24 24.5t-12 45q0 22 10.5 43t35 35t65.5 14t65 -14t34.5 -35t10.5 -43q0 -29 -11.5 -46t-23 -24l-11.5 -7l15 -8t30 -27t15 -52q0 -25 -12 -51t-39 -43t-73 -17zM167 368q32 0 43.5 16.5
t11.5 37.5q0 32 -17 46.5t-38 14.5q-22 0 -38.5 -14.5t-16.5 -46.5q0 -21 15 -37.5t40 -16.5zM167 534q22 0 32 14t10 30q0 25 -12.5 33.5t-29.5 8.5q-13 0 -27 -8.5t-14 -34.5q0 -15 9.5 -29t31.5 -14z" />
    <glyph glyph-name="nine.numr" horiz-adv-x="338" 
d="M110 311q-15 0 -28.5 2t-24.5 5v56q11 -3 23 -5t25 -2q12 0 31 3t39.5 12.5t36.5 30t20 55.5q-10 -7 -30 -15t-51 -8q-56 0 -89 30t-33 82q0 28 12 56t38.5 46.5t71.5 18.5q83 0 117.5 -42t34.5 -126q0 -67 -18.5 -107t-48 -60t-63 -26t-63.5 -6zM151 501q36 0 56 11.5
t27 18.5q0 41 -12 60.5t-31 25t-40 5.5q-23 0 -34.5 -12t-15 -27.5t-3.5 -25.5q0 -22 17.5 -39t35.5 -17z" />
    <glyph glyph-name="fraction" unicode="&#x2044;" horiz-adv-x="444" 
d="M-17 -22l407 707h68l-407 -707h-68z" />
    <glyph glyph-name="onehalf" unicode="&#xbd;" horiz-adv-x="685" 
d="M95 315v318l13 -41l-55 -36v76l66 42h44v-359h-68zM63 -22l407 707h68l-407 -707h-68zM409 1v34q23 17 49 41.5t49.5 54t38.5 60.5t15 61q0 21 -17.5 36t-47.5 15q-24 0 -46.5 -10t-36.5 -20v64q17 11 41.5 19t55.5 8q44 0 70.5 -15t38 -38t11.5 -47q0 -41 -23 -82.5
t-57 -78t-67 -63.5l-10 20h162v-59h-226z" />
    <glyph glyph-name="uni2153" unicode="&#x2153;" horiz-adv-x="710" 
d="M95 315v318l13 -41l-55 -36v76l66 42h44v-359h-68zM123 -22l407 707h68l-407 -707h-68zM578 -3q-29 0 -53 6.5t-43 15.5v62q17 -9 40 -16.5t51 -7.5q26 0 48 12.5t22 43.5q0 27 -22.5 38.5t-49.5 11.5h-39v57h41q17 0 34 10t17 38q0 15 -15.5 25t-40.5 10
q-24 0 -43.5 -5.5t-33.5 -13.5v62q17 8 37 13t45 5q44 0 70 -14.5t37.5 -36.5t11.5 -45q0 -27 -11.5 -43t-23 -23l-11.5 -7q9 -6 24.5 -14.5t27.5 -26.5t12 -51q0 -19 -7 -38t-22.5 -34.5t-41 -24.5t-61.5 -9z" />
    <glyph glyph-name="onequarter" unicode="&#xbc;" horiz-adv-x="739" 
d="M95 315v318l13 -41l-55 -36v76l66 42h44v-359h-68zM70 -22l407 707h68l-407 -707h-68zM569 1v88h-144v61l170 210h43v-215h51v-56h-51v-88h-69zM488 145h81v146l50 13z" />
    <glyph glyph-name="threequarters" unicode="&#xbe;" horiz-adv-x="751" 
d="M149 311q-29 0 -53 6.5t-43 15.5v62q17 -9 40 -16.5t51 -7.5q26 0 48 12.5t22 43.5q0 27 -22.5 38.5t-49.5 11.5h-39v57h41q17 0 34 10t17 38q0 15 -15.5 25t-40.5 10q-24 0 -43.5 -5.5t-33.5 -13.5v62q17 8 37 13t45 5q44 0 70 -14.5t37.5 -36.5t11.5 -45
q0 -27 -11.5 -43t-23 -23l-11.5 -7q9 -6 24.5 -14.5t27.5 -26.5t12 -51q0 -19 -7 -38t-22.5 -34.5t-41 -24.5t-61.5 -9zM143 -22l407 707h68l-407 -707h-68zM581 1v88h-144v61l170 210h43v-215h51v-56h-51v-88h-69zM500 145h81v146l50 13z" />
    <glyph glyph-name="oneeighth" unicode="&#x215b;" horiz-adv-x="691" 
d="M95 315v318l13 -41l-55 -36v76l66 42h44v-359h-68zM73 -22l407 707h68l-407 -707h-68zM517 -3q-46 0 -73 17t-39 43t-12 51q0 33 15.5 52t30.5 27l15 8l-12 7.5t-24 24.5t-12 45q0 22 10.5 43t35 35t65.5 14t65 -14t34.5 -35t10.5 -43q0 -29 -11.5 -46t-23 -24l-11.5 -7
l15 -8t30 -27t15 -52q0 -25 -12 -51t-39 -43t-73 -17zM517 54q32 0 43.5 16.5t11.5 37.5q0 32 -17 46.5t-38 14.5q-22 0 -38.5 -14.5t-16.5 -46.5q0 -21 15 -37.5t40 -16.5zM517 220q22 0 32 14t10 30q0 25 -12.5 33.5t-29.5 8.5q-13 0 -27 -8.5t-14 -34.5q0 -15 9.5 -29
t31.5 -14z" />
    <glyph glyph-name="threeeighths" unicode="&#x215c;" horiz-adv-x="761" 
d="M149 311q-29 0 -53 6.5t-43 15.5v62q17 -9 40 -16.5t51 -7.5q26 0 48 12.5t22 43.5q0 27 -22.5 38.5t-49.5 11.5h-39v57h41q17 0 34 10t17 38q0 15 -15.5 25t-40.5 10q-24 0 -43.5 -5.5t-33.5 -13.5v62q17 8 37 13t45 5q44 0 70 -14.5t37.5 -36.5t11.5 -45
q0 -27 -11.5 -43t-23 -23l-11.5 -7q9 -6 24.5 -14.5t27.5 -26.5t12 -51q0 -19 -7 -38t-22.5 -34.5t-41 -24.5t-61.5 -9zM143 -22l407 707h68l-407 -707h-68zM587 -3q-46 0 -73 17t-39 43t-12 51q0 33 15.5 52t30.5 27l15 8l-12 7.5t-24 24.5t-12 45q0 22 10.5 43t35 35
t65.5 14t65 -14t34.5 -35t10.5 -43q0 -29 -11.5 -46t-23 -24l-11.5 -7l15 -8t30 -27t15 -52q0 -25 -12 -51t-39 -43t-73 -17zM587 54q32 0 43.5 16.5t11.5 37.5q0 32 -17 46.5t-38 14.5q-22 0 -38.5 -14.5t-16.5 -46.5q0 -21 15 -37.5t40 -16.5zM587 220q22 0 32 14t10 30
q0 25 -12.5 33.5t-29.5 8.5q-13 0 -27 -8.5t-14 -34.5q0 -15 9.5 -29t31.5 -14z" />
    <glyph glyph-name="fiveeighths" unicode="&#x215d;" horiz-adv-x="771" 
d="M166 311q-36 0 -61 6.5t-42 15.5v60q11 -7 34 -16t51 -9q29 0 46.5 11t17.5 38q0 28 -11.5 41t-28 17.5t-31.5 4.5q-26 0 -44 -8.5l-18 -8.5l-24 45l18 166h184v-59h-131l-10 -86q14 4 28.5 6.5t35.5 2.5q19 0 42.5 -8.5t40.5 -33t17 -71.5t-17.5 -71.5t-44 -33.5
t-52.5 -9zM153 -22l407 707h68l-407 -707h-68zM597 -3q-46 0 -73 17t-39 43t-12 51q0 33 15.5 52t30.5 27l15 8l-12 7.5t-24 24.5t-12 45q0 22 10.5 43t35 35t65.5 14t65 -14t34.5 -35t10.5 -43q0 -29 -11.5 -46t-23 -24l-11.5 -7l15 -8t30 -27t15 -52q0 -25 -12 -51
t-39 -43t-73 -17zM597 54q32 0 43.5 16.5t11.5 37.5q0 32 -17 46.5t-38 14.5q-22 0 -38.5 -14.5t-16.5 -46.5q0 -21 15 -37.5t40 -16.5zM597 220q22 0 32 14t10 30q0 25 -12.5 33.5t-29.5 8.5q-13 0 -27 -8.5t-14 -34.5q0 -15 9.5 -29t31.5 -14z" />
    <glyph glyph-name="seveneighths" unicode="&#x215e;" horiz-adv-x="751" 
d="M76 315l158 353l30 -53h-224v59h244v-37l-145 -322h-63zM113 -22l407 707h68l-407 -707h-68zM577 -3q-46 0 -73 17t-39 43t-12 51q0 33 15.5 52t30.5 27l15 8l-12 7.5t-24 24.5t-12 45q0 22 10.5 43t35 35t65.5 14t65 -14t34.5 -35t10.5 -43q0 -29 -11.5 -46t-23 -24
l-11.5 -7l15 -8t30 -27t15 -52q0 -25 -12 -51t-39 -43t-73 -17zM577 54q32 0 43.5 16.5t11.5 37.5q0 32 -17 46.5t-38 14.5q-22 0 -38.5 -14.5t-16.5 -46.5q0 -21 15 -37.5t40 -16.5zM577 220q22 0 32 14t10 30q0 25 -12.5 33.5t-29.5 8.5q-13 0 -27 -8.5t-14 -34.5
q0 -15 9.5 -29t31.5 -14z" />
    <glyph glyph-name="asterisk" unicode="*" horiz-adv-x="411" 
d="M177 460l10 90l-76 -55l-27 48l87 38l-87 39l27 46l76 -54l-10 91h54l-8 -91l75 54l27 -46l-86 -39l86 -38l-27 -48l-75 55l8 -90h-54z" />
    <glyph glyph-name="backslash" unicode="\" horiz-adv-x="368" 
d="M331 -98l-368 854h66l367 -854h-65z" />
    <glyph glyph-name="periodcentered" unicode="&#xb7;" horiz-adv-x="311" 
d="M116 232v80h79v-80h-79z" />
    <glyph glyph-name="bullet" unicode="&#x2022;" horiz-adv-x="415" 
d="M206 218q-32 0 -58.5 15.5t-42 42t-15.5 58.5t15.5 58t42 41.5t58.5 15.5t58 -15.5t41.5 -41.5t15.5 -58t-15.5 -58.5t-41.5 -42t-58 -15.5z" />
    <glyph glyph-name="colon" unicode=":" horiz-adv-x="391" 
d="M158 368v80h80v-80h-80zM158 48v80h80v-80h-80z" />
    <glyph glyph-name="comma" unicode="," horiz-adv-x="313" 
d="M74 -112l74 196h82l-84 -196h-72z" />
    <glyph glyph-name="ellipsis" unicode="&#x2026;" horiz-adv-x="770" 
d="M107 0v80h80v-80h-80zM347 0v80h79v-80h-79zM586 0v80h79v-80h-79z" />
    <glyph glyph-name="exclam" unicode="!" horiz-adv-x="372" 
d="M159 168l-7 499h72l-7 -499h-58zM148 0v80h80v-80h-80z" />
    <glyph glyph-name="exclamdown" unicode="&#xa1;" horiz-adv-x="362" 
d="M152 -168l7 499h58l7 -499h-72zM148 420v79h80v-79h-80z" />
    <glyph glyph-name="numbersign" unicode="#" horiz-adv-x="591" 
d="M134 19l19 107h-82v60h92l27 159h-91v60h102l20 118h61l-20 -118h132l21 118h61l-21 -118h72v-60h-82l-28 -159h81v-60h-91l-18 -107h-61l18 107h-132l-19 -107h-61zM224 186h132l28 159h-133z" />
    <glyph glyph-name="period" unicode="." horiz-adv-x="260" 
d="M80 0v100h100v-100h-100z" />
    <glyph glyph-name="question" unicode="?" horiz-adv-x="485" 
d="M195 168v49q0 55 15 89.5t37.5 56.5t45 39.5t37.5 37t15 50.5q0 37 -14.5 62t-43.5 38t-73 13q-49 0 -83.5 -16t-50.5 -28v78l17 9.5t48.5 19t73.5 9.5q24 0 57.5 -6.5t65.5 -25.5t53.5 -55.5t21.5 -97.5q0 -44 -15 -70.5t-37.5 -45.5t-45 -39t-37.5 -48t-15 -75v-44h-72
zM191 0v80h80v-80h-80z" />
    <glyph glyph-name="questiondown" unicode="&#xbf;" horiz-adv-x="483" 
d="M270 -176q-24 0 -57.5 6.5t-65.5 25.5t-53.5 56t-21.5 98q0 44 15 70.5t37.5 45.5t45 38.5t37.5 48t15 74.5v45h72v-50q0 -55 -15 -89.5t-37.5 -56.5t-45 -39t-37.5 -37t-15 -50q0 -36 14.5 -61.5t44 -39t73.5 -13.5q48 0 83 16.5t51 27.5v-78l-17.5 -9.5t-49 -19
t-73.5 -9.5zM218 420v79h80v-79h-80z" />
    <glyph glyph-name="quotedbl" unicode="&#x22;" horiz-adv-x="381" 
d="M232 475l-17 201h83l-18 -201h-48zM99 475l-18 201h83l-17 -201h-48z" />
    <glyph glyph-name="quotesingle" unicode="'" horiz-adv-x="249" 
d="M99 475l-18 201h83l-17 -201h-48z" />
    <glyph glyph-name="semicolon" unicode=";" horiz-adv-x="285" 
d="M40 -112l64 196h92l-84 -196h-72zM105 348v100h100v-100h-100z" />
    <glyph glyph-name="slash" unicode="/" horiz-adv-x="404" 
d="M-14 -98l367 854h66l-368 -854h-65z" />
    <glyph glyph-name="underscore" unicode="_" horiz-adv-x="546" 
d="M0 -68v44h546v-44h-546z" />
    <glyph glyph-name="periodcentered.loclCAT.case" horiz-adv-x="311" 
d="M116 232v80h79v-80h-79z" />
    <glyph glyph-name="periodcentered.loclCAT" horiz-adv-x="311" 
d="M116 232v80h79v-80h-79z" />
    <glyph glyph-name="braceleft" unicode="{" horiz-adv-x="373" 
d="M304 -110q-48 0 -81.5 17.5t-51 51t-17.5 81.5v156q0 23 -10 37.5t-24.5 23t-28.5 12.5v49q14 4 28.5 12t24.5 22.5t10 37.5v156q0 49 17.5 82.5t51 51t81.5 17.5h8v-68h-8q-24 -1 -41.5 -7.5t-27 -23t-9.5 -47.5v-161q0 -31 -16 -55.5t-42 -41.5q26 -17 42 -41t16 -56
v-161q0 -31 9.5 -47.5t27 -23t41.5 -7.5h8v-67h-8z" />
    <glyph glyph-name="braceright" unicode="}" horiz-adv-x="368" 
d="M70 -110v67h6q25 1 42.5 7.5t26.5 23t9 47.5v161q0 32 17 56t42 41q-25 17 -42 41.5t-17 55.5v161q0 31 -9 47.5t-26.5 23t-42.5 7.5h-6v68h6q49 0 82 -17.5t50.5 -51t17.5 -82.5v-156q0 -23 10 -37.5t25 -22.5t28 -12v-49q-13 -4 -28 -12.5t-25 -23t-10 -37.5v-156
q0 -48 -17.5 -81.5t-50.5 -51t-82 -17.5h-6z" />
    <glyph glyph-name="bracketleft" unicode="[" horiz-adv-x="383" 
d="M119 -116v812h181v-68h-109v-676h109v-68h-181z" />
    <glyph glyph-name="bracketright" unicode="]" horiz-adv-x="381" 
d="M84 -116v68h108v676h-108v68h180v-812h-180z" />
    <glyph glyph-name="parenleft" unicode="(" horiz-adv-x="345" 
d="M204 -113q-19 35 -45.5 96.5t-46 143.5t-19.5 178q0 97 19.5 179t46 143.5t45.5 96.5h76q-9 -15 -27.5 -52.5t-39 -92.5t-34.5 -124.5t-14 -149.5q0 -79 14 -148.5t34.5 -125t39 -92.5t27.5 -52h-76z" />
    <glyph glyph-name="parenright" unicode=")" horiz-adv-x="345" 
d="M65 -113q9 15 28 52.5t39 92.5t34.5 125t14.5 149t-14.5 148.5t-34.5 125t-39 92.5t-28 52h77q20 -35 46 -96.5t45.5 -143.5t19.5 -178t-19.5 -178.5t-45.5 -144t-46 -96.5h-77z" />
    <glyph glyph-name="emdash" unicode="&#x2014;" horiz-adv-x="891" 
d="M79 258v66h733v-66h-733z" />
    <glyph glyph-name="endash" unicode="&#x2013;" horiz-adv-x="560" 
d="M69 258v62h420v-62h-420z" />
    <glyph glyph-name="hyphen" unicode="-" horiz-adv-x="464" 
d="M79 263v70h305v-70h-305z" />
    <glyph glyph-name="uni00AD" unicode="&#xad;" horiz-adv-x="600" 
d="M79 263v70h305v-70h-305z" />
    <glyph glyph-name="guillemotleft" unicode="&#xab;" horiz-adv-x="553" 
d="M390 64l-169 191l169 190h97l-178 -190l178 -191h-97zM200 64l-169 191l169 190h97l-178 -190l178 -191h-97z" />
    <glyph glyph-name="guillemotright" unicode="&#xbb;" horiz-adv-x="553" 
d="M257 64l177 191l-177 190h96l170 -190l-170 -191h-96zM67 64l177 191l-177 190h96l170 -190l-170 -191h-96z" />
    <glyph glyph-name="guilsinglleft" unicode="&#x2039;" horiz-adv-x="347" 
d="M200 64l-169 191l169 190h97l-178 -190l178 -191h-97z" />
    <glyph glyph-name="guilsinglright" unicode="&#x203a;" horiz-adv-x="379" 
d="M67 64l177 191l-177 190h96l170 -190l-170 -191h-96z" />
    <glyph glyph-name="quotedblbase" unicode="&#x201e;" horiz-adv-x="436" 
d="M208 -112l74 196h82l-84 -196h-72zM72 -112l74 196h81l-83 -196h-72z" />
    <glyph glyph-name="quotedblleft" unicode="&#x201c;" horiz-adv-x="391" 
d="M267 480l-84 196h82l74 -196h-72zM131 480l-84 196h82l74 -196h-72z" />
    <glyph glyph-name="quotedblright" unicode="&#x201d;" horiz-adv-x="387" 
d="M183 480l74 196h82l-84 -196h-72zM47 480l74 196h82l-84 -196h-72z" />
    <glyph glyph-name="quoteleft" unicode="&#x2018;" horiz-adv-x="255" 
d="M131 480l-84 196h82l74 -196h-72z" />
    <glyph glyph-name="quoteright" unicode="&#x2019;" horiz-adv-x="255" 
d="M47 480l74 196h82l-84 -196h-72z" />
    <glyph glyph-name="quotesinglbase" unicode="&#x201a;" horiz-adv-x="300" 
d="M72 -112l74 196h81l-83 -196h-72z" />
    <glyph glyph-name="space" unicode=" " horiz-adv-x="290" 
 />
    <glyph glyph-name="Euro" unicode="&#x20ac;" horiz-adv-x="679" 
d="M423 -8q-64 0 -114.5 15t-88 44.5t-62 73.5t-35.5 103h-73v60h66q-1 11 -1.5 22.5t-0.5 23.5t0.5 23.5t1.5 22.5h-66v60h73q11 59 35.5 103t62 73.5t88 44.5t114.5 15q53 0 103.5 -9.5t99.5 -29.5v-69q-46 20 -95 30t-100 10q-100 0 -157.5 -41t-77.5 -127h321v-60h-329
q-1 -11 -1.5 -22.5t-0.5 -23.5t0.5 -23.5t1.5 -22.5h329v-60h-321q20 -86 77.5 -127t157.5 -41q51 0 100 10t95 29v-69q-49 -19 -99.5 -28.5t-103.5 -9.5z" />
    <glyph glyph-name="uni20B5" unicode="&#x20b5;" horiz-adv-x="622" 
d="M318 640v109h72v-109h-72zM318 -98v119h72v-119h-72zM364 -8q-154 0 -231.5 86t-77.5 256t77.5 256t231.5 86q53 0 104 -13t99 -36v-69q-46 25 -95 37.5t-100 12.5q-84 0 -137.5 -29t-79 -89.5t-25.5 -155.5t25.5 -155.5t79 -89.5t137.5 -29q51 0 100 12t95 37v-69
q-32 -15 -65.5 -26t-68 -16.5t-69.5 -5.5z" />
    <glyph glyph-name="cent" unicode="&#xa2;" horiz-adv-x="492" 
d="M245 527v101h72v-101h-72zM245 0v81h72v-81h-72zM289 53q-40 0 -81.5 10.5t-76 38t-55.5 78.5t-21 131t21 130.5t55.5 78.5t76 38.5t81.5 10.5q38 0 75.5 -7t72.5 -21v-69q-33 14 -68 21t-72 7q-89 0 -129.5 -45t-40.5 -144q0 -100 40.5 -144.5t129.5 -44.5q37 0 72 7
t68 21v-70q-35 -13 -72.5 -20t-75.5 -7z" />
    <glyph glyph-name="colonmonetary" unicode="&#x20a1;" horiz-adv-x="651" 
d="M369 -8q-154 0 -231.5 86t-77.5 256t77.5 256t231.5 86q27 0 53.5 -3.5t52 -9.5t50.5 -16l-34 -55q-28 8 -56.5 12t-57.5 4q-84 0 -137.5 -29t-79 -89.5t-25.5 -155.5t25.5 -155.5t79 -89.5t137.5 -29q51 0 100 12t95 37v-69q-32 -15 -65.5 -26t-68 -16.5t-69.5 -5.5z
M67 -22l405 672l53 -3l-401 -669h-57zM210 -22l379 665h57l-379 -665h-57z" />
    <glyph glyph-name="currency" unicode="&#xa4;" horiz-adv-x="494" 
d="M249 156q-50 0 -92 24.5t-66.5 66.5t-24.5 92q0 51 24.5 92.5t66.5 66t92 24.5q51 0 92.5 -24.5t66 -66t24.5 -92.5q0 -50 -24.5 -92t-66 -66.5t-92.5 -24.5zM249 220q47 0 78.5 33t31.5 86t-31.5 86t-78.5 33t-79 -33t-32 -86t32 -86t79 -33zM123 260l46 -46l-74 -73
l-45 45zM399 535l45 -45l-73 -74l-46 46zM169 462l-46 -46l-73 74l45 45zM444 186l-45 -45l-74 73l46 46z" />
    <glyph glyph-name="dollar" unicode="$" horiz-adv-x="555" 
d="M251 643v110h72v-110h-72zM251 -93v120h72v-120h-72zM274 -10q-50 0 -85 7t-63 20t-61 30v78q32 -27 86 -48t126 -21q76 0 110.5 32.5t34.5 82.5q0 42 -23 67.5t-59 42t-76 31.5q-34 12 -67.5 25.5t-60.5 34t-43 53t-16 81.5q0 27 10.5 57t34 56t63 42t96.5 16
q39 0 66.5 -5.5t52.5 -16t56 -25.5v-74q-26 15 -49.5 27.5t-52 20t-69.5 7.5q-49 0 -78.5 -14t-43 -37t-13.5 -49q0 -41 18.5 -65t52 -39.5t77.5 -30.5q35 -12 70 -26.5t63.5 -36t46 -54t17.5 -80.5q0 -45 -20 -88.5t-68 -72t-133 -28.5z" />
    <glyph glyph-name="dong" unicode="&#x20ab;" horiz-adv-x="413" 
d="M200 120q-24 0 -52 6.5t-52.5 25.5t-40.5 55.5t-16 97.5q0 47 16 82t42 57.5t55 33.5t54 11q21 0 41.5 -3t39.5 -10v57h-86v64h86v62h72v-62h44v-64h-44v-299q0 -22 -17 -49t-52 -46t-90 -19zM56 1v65h299v-65h-299zM200 183q44 0 65.5 15t21.5 43v168q-19 8 -37.5 12
t-29.5 4q-46 0 -77.5 -32.5t-31.5 -88.5q0 -40 11.5 -64t27 -36.5t30 -16.5t20.5 -4z" />
    <glyph glyph-name="florin" unicode="&#x192;" horiz-adv-x="330" 
d="M40 -122q-8 0 -15.5 0.5t-14.5 1.5v65q4 -1 8.5 -1h9.5q17 0 35 2t33.5 12.5t25 34.5t9.5 67v373h-87v66h87v9q0 55 12.5 89.5t32.5 54t42 28t42 10t32 1.5q8 0 15.5 -0.5t14.5 -1.5v-65q-4 0 -8.5 0.5t-9.5 0.5q-17 0 -35 -2t-33.5 -12.5t-25 -34t-9.5 -67.5v-10h121
v-66h-121v-372q0 -55 -12.5 -89.5t-32.5 -54t-42 -28t-42 -10t-32 -1.5z" />
    <glyph glyph-name="franc" unicode="&#x20a3;" horiz-adv-x="539" 
d="M85 0v667h409v-68h-337v-230h296v-70h-296v-299h-72zM2 111v53h244v-53h-244z" />
    <glyph glyph-name="uni20B2" unicode="&#x20b2;" horiz-adv-x="687" 
d="M318 640v109h72v-109h-72zM318 -98v119h72v-119h-72zM369 -10q-102 0 -171 38.5t-103.5 115t-34.5 190.5t34.5 190t103.5 114t171 38q55 0 108 -11t102 -34v-75q-47 21 -98 36.5t-104 15.5q-84 0 -138.5 -29.5t-80.5 -90t-26 -154.5t26 -155t80.5 -90.5t138.5 -29.5
q40 0 78 6t75 18v190h-161v70h233v-301q-55 -26 -113 -39t-120 -13z" />
    <glyph glyph-name="uni20AD" unicode="&#x20ad;" horiz-adv-x="613" 
d="M18 363v53h444v-53h-444zM149 213v94l324 360h92zM85 0v667h72v-667h-72zM261 376l327 -376h-100l-281 327z" />
    <glyph glyph-name="lira" unicode="&#x20a4;" horiz-adv-x="600" 
d="M137 490q0 45 20.5 87.5t67 70.5t124.5 28q46 0 84 -11.5t67 -27.5v-73q-25 16 -61.5 29.5t-83.5 13.5q-60 0 -91.5 -17.5t-43 -44t-11.5 -52.5v-415q49 -7 97.5 -18t96.5 -13q25 -1 49 2.5t48 12.5v-73q-22 -8 -44.5 -12t-45.5 -3q-40 1 -81 9t-81.5 16t-81.5 9
q-28 1 -57 -4t-58 -19v73q22 11 43 16t43 6v410zM51 207v66h359v-66h-359zM51 321v66h359v-66h-359z" />
    <glyph glyph-name="uni20BA" unicode="&#x20ba;" horiz-adv-x="538" 
d="M273 60q51 0 100 12t95 37v-69q-32 -15 -65.5 -26t-68 -16.5t-69.5 -5.5q-109 0 -180 44v631h72v-587q29 -13 61 -16.5t55 -3.5zM23 362l232 198v-69l-232 -198v69zM23 244l232 198v-69l-232 -198v69z" />
    <glyph glyph-name="uni20BC" unicode="&#x20bc;" horiz-adv-x="692" 
d="M346 677q124 0 192.5 -72.5t68.5 -209.5v-395h-72v399q0 107 -48 158.5t-141 51.5t-142 -51.5t-49 -158.5v-399h-70v395q0 91 31 154t89.5 95.5t140.5 32.5zM310 -2v764h72v-764h-72z" />
    <glyph glyph-name="uni20A6" unicode="&#x20a6;" horiz-adv-x="722" 
d="M8 292v53h706v-53h-706zM85 0v667h82l416 -587l-18 -28v615h72v-667h-81l-432 609l33 31v-640h-72z" />
    <glyph glyph-name="peseta" unicode="&#x20a7;" horiz-adv-x="613" 
d="M20 420v53h115v-53h-115zM488 420v53h115v-53h-115zM157 255v-255h-72v667h237q112 0 171.5 -53t59.5 -153t-59.5 -153t-171.5 -53h-165zM157 324h156q56 0 89.5 12t50.5 32.5t22.5 44.5t5.5 48t-5.5 48t-22.5 44.5t-50.5 32.5t-89.5 12h-156v-274z" />
    <glyph glyph-name="uni20B1" unicode="&#x20b1;" horiz-adv-x="613" 
d="M20 481v53h115v-53h-115zM488 481v53h115v-53h-115zM20 354v53h115v-53h-115zM488 354v53h115v-53h-115zM157 255v-255h-72v667h237q112 0 171.5 -53t59.5 -153t-59.5 -153t-171.5 -53h-165zM157 324h156q56 0 89.5 12t50.5 32.5t22.5 44.5t5.5 48t-5.5 48t-22.5 44.5
t-50.5 32.5t-89.5 12h-156v-274z" />
    <glyph glyph-name="uni20BD" unicode="&#x20bd;" horiz-adv-x="613" 
d="M157 255v-255h-72v667h237q112 0 171.5 -53t59.5 -153t-59.5 -153t-171.5 -53h-165zM157 324h156q56 0 89.5 12t50.5 32.5t22.5 44.5t5.5 48t-5.5 48t-22.5 44.5t-50.5 32.5t-89.5 12h-156v-274zM16 103v53h244v-53h-244zM16 271v53h244v-53h-244z" />
    <glyph glyph-name="uni20B9" unicode="&#x20b9;" horiz-adv-x="506" 
d="M294 599l-60 66q98 0 147.5 -48t49.5 -144q0 -58 -24 -103t-67 -71t-101 -26l30 20l192 -293h-85l-198 306l36 -37h-149v68h136q83 0 120.5 33.5t37.5 97.5q0 60 -28 95.5t-105 35.5h-161v68h149h249v-68h-169z" />
    <glyph glyph-name="sterling" unicode="&#xa3;" horiz-adv-x="555" 
d="M137 490q0 45 20.5 87.5t67 70.5t124.5 28q46 0 84 -11.5t67 -27.5v-73q-25 16 -61.5 29.5t-83.5 13.5q-60 0 -91.5 -17.5t-43 -44t-11.5 -52.5v-415q49 -6 97.5 -17.5t97 -14t96.5 15.5v-73q-37 -14 -74.5 -15t-75 5t-75 14t-75 13t-74.5 1t-75 -22v73q22 11 43 16t43 6
v410zM51 281v66h359v-66h-359z" />
    <glyph glyph-name="uni20A9" unicode="&#x20a9;" horiz-adv-x="951" 
d="M33 330v53h872v-53h-872zM239 0l-214 667h76l191 -605h-22l182 605h72l188 -614h-28l191 614h76l-215 -667h-73l-187 591h24l-187 -591h-74z" />
    <glyph glyph-name="yen" unicode="&#xa5;" horiz-adv-x="602" 
d="M267 0v138h-157v60h157v94h-157v60h125l-217 315h88l197 -287l197 287h88l-217 -315h125v-60h-157v-94h157v-60h-157v-138h-72z" />
    <glyph glyph-name="uni2219" unicode="&#x2219;" horiz-adv-x="311" 
d="M116 232v80h79v-80h-79z" />
    <glyph glyph-name="uni2215" unicode="&#x2215;" horiz-adv-x="444" 
d="M-17 -22l407 707h68l-407 -707h-68z" />
    <glyph glyph-name="plus" unicode="+" horiz-adv-x="551" 
d="M245 122v147h-148v60h148v148h60v-148h147v-60h-147v-147h-60z" />
    <glyph glyph-name="minus" unicode="&#x2212;" horiz-adv-x="566" 
d="M80 227v60h406v-60h-406z" />
    <glyph glyph-name="multiply" unicode="&#xd7;" horiz-adv-x="481" 
d="M77 78l133 178l-133 178h64l101 -135l102 135h64l-133 -178l133 -178h-64l-102 135l-101 -135h-64z" />
    <glyph glyph-name="divide" unicode="&#xf7;" horiz-adv-x="628" 
d="M111 227v60h406v-60h-406zM274 74v80h80v-80h-80zM274 359v80h80v-80h-80z" />
    <glyph glyph-name="equal" unicode="=" horiz-adv-x="638" 
d="M127 341v69h385v-69h-385zM127 186v70h385v-70h-385z" />
    <glyph glyph-name="notequal" unicode="&#x2260;" horiz-adv-x="611" 
d="M207 13l-47 26l55 99h-102v60h135l53 94h-188v60h222l70 125l47 -27l-55 -98h101v-60h-135l-53 -94h188v-60h-221z" />
    <glyph glyph-name="greater" unicode="&#x3e;" horiz-adv-x="649" 
d="M132 48v79l327 142l-327 141v80l411 -187v-68z" />
    <glyph glyph-name="less" unicode="&#x3c;" horiz-adv-x="660" 
d="M532 48l-412 187v68l412 187v-80l-328 -141l328 -142v-79z" />
    <glyph glyph-name="greaterequal" unicode="&#x2265;" horiz-adv-x="568" 
d="M108 239v61l265 111l-265 110v62l350 -146v-53zM108 145v57h350v-57h-350z" />
    <glyph glyph-name="lessequal" unicode="&#x2264;" horiz-adv-x="568" 
d="M458 239l-350 145v53l350 146v-62l-266 -110l266 -111v-61zM108 145v57h350v-57h-350z" />
    <glyph glyph-name="plusminus" unicode="&#xb1;" horiz-adv-x="585" 
d="M261 144v148h-148v60h148v147h60v-147h147v-60h-147v-148h-60zM113 33v60h355v-60h-355z" />
    <glyph glyph-name="approxequal" unicode="&#x2248;" horiz-adv-x="611" 
d="M100 320v60q34 32 68.5 37.5t68.5 -3.5t68.5 -23.5t68.5 -23.5t68.5 -3.5t68.5 37.5v-60q-34 -32 -68.5 -37.5t-68.5 3.5t-68.5 23.5t-68.5 23.5t-68.5 3.5t-68.5 -37.5zM100 163v60q34 32 68.5 37.5t68.5 -3.5t68.5 -23.5t68.5 -23.5t68.5 -3.5t68.5 37.5v-61
q-34 -32 -68.5 -37.5t-68.5 4t-68.5 23.5t-68.5 23.5t-68.5 4t-68.5 -37.5z" />
    <glyph glyph-name="asciitilde" unicode="~" horiz-adv-x="500" 
d="M98 231v61q25 32 50.5 37.5t51 -4t50.5 -23.5t50.5 -23.5t51 -4t50.5 37.5v-60q-25 -32 -50.5 -37.5t-51 3.5t-50.5 23.5t-50.5 23.5t-51 3.5t-50.5 -37.5z" />
    <glyph glyph-name="logicalnot" unicode="&#xac;" horiz-adv-x="622" 
d="M459 158v100h-362v66h428v-166h-66z" />
    <glyph glyph-name="infinity" unicode="&#x221e;" horiz-adv-x="756" 
d="M199 220q-28 0 -61.5 14.5t-57 48t-23.5 89.5t23.5 89.5t57 48.5t61.5 15q41 0 74 -18t59 -44.5t44 -52.5q19 26 45 52.5t59 44.5t73 18q29 0 62 -15t56.5 -48.5t23.5 -89.5t-23.5 -89.5t-56.5 -48t-62 -14.5q-40 0 -73 17.5t-59 44t-45 52.5q-19 -26 -45 -52.5
t-58.5 -44t-73.5 -17.5zM203 265q32 0 59 17t49 41.5t38 48.5q-16 24 -38 49t-49 42t-59 17l-14.5 -2t-33.5 -12t-33 -32t-14 -62t14 -62t33 -31.5t33.5 -11.5zM549 265l14.5 2t33.5 11.5t33 31.5t14 62t-14 62t-33 32t-33.5 12l-14.5 2q-31 0 -58.5 -17t-49 -42t-38.5 -49
q17 -24 38.5 -48.5t49 -41.5t58.5 -17z" />
    <glyph glyph-name="integral" unicode="&#x222b;" horiz-adv-x="330" 
d="M40 -122q-8 0 -15.5 0.5t-14.5 1.5v65q4 -1 8.5 -1h9.5q17 0 35 2t33.5 12.5t25 34.5t9.5 67v448q0 55 12.5 89.5t32.5 54t42 28t42 10t32 1.5q8 0 15.5 -0.5t14.5 -1.5v-65q-4 0 -8.5 0.5t-9.5 0.5q-17 0 -35 -2t-33.5 -12.5t-25 -34t-9.5 -67.5v-448q0 -55 -12.5 -89.5
t-32.5 -54t-42 -28t-42 -10t-32 -1.5z" />
    <glyph glyph-name="uni0394" unicode="&#x2206;" horiz-adv-x="729" 
d="M27 0l307 667h60l308 -667h-675zM134 69h460l-230 499z" />
    <glyph glyph-name="product" unicode="&#x220f;" horiz-adv-x="719" 
d="M167 -132v583h-134v66h653v-66h-134v-583h-66v583h-253v-583h-66z" />
    <glyph glyph-name="summation" unicode="&#x2211;" horiz-adv-x="562" 
d="M77 0v72l167 261l-167 262v72h419v-66h-345l172 -268l-172 -268h345v-65h-419z" />
    <glyph glyph-name="radical" unicode="&#x221a;" horiz-adv-x="719" 
d="M381 0l-129 330h-158v54h208l109 -279l219 562h71l-260 -667h-60z" />
    <glyph glyph-name="uni03BC" unicode="&#xb5;" horiz-adv-x="609" 
d="M99 -210v709h72v-324q0 -24 8.5 -49.5t36.5 -43.5t88 -18q39 0 72.5 6t58.5 13v416h72v-458q-9 -4 -28 -12.5t-47 -16.5t-62 -14t-73 -6q-38 0 -66.5 10t-44 20l-15.5 10v-242h-72z" />
    <glyph glyph-name="partialdiff" unicode="&#x2202;" horiz-adv-x="583" 
d="M292 -8q-63 0 -106.5 20t-70 53.5t-38.5 73t-12 78.5q0 48 15.5 87t45.5 66t72 41.5t94 14.5q38 0 67.5 -7t50 -17t32.5 -19q-7 63 -27.5 104.5t-48.5 65.5t-58.5 36t-57 15.5t-43.5 3.5q-16 0 -30 -1.5t-27 -3.5v67q15 2 31 4t33 2q28 0 66.5 -7t80 -27.5t77.5 -61
t58.5 -107.5t22.5 -168q0 -313 -227 -313zM292 60q14 0 33.5 2.5t40.5 13.5t39 36.5t29.5 71.5t12.5 119q-9 9 -28.5 22t-50.5 23.5t-76 10.5q-50 0 -84.5 -16.5t-52.5 -47.5t-18 -77q0 -14 4.5 -40t19 -53t46 -46t85.5 -19z" />
    <glyph glyph-name="percent" unicode="%" horiz-adv-x="761" 
d="M190 309q-70 0 -106 46.5t-36 137.5q0 92 36 138t106 46t105.5 -46t35.5 -138q0 -91 -35.5 -137.5t-105.5 -46.5zM190 359q13 0 31.5 9t33.5 38t15 87q0 59 -15 87.5t-33.5 37.5t-31.5 9t-32 -9t-34 -37.5t-15 -87.5q0 -58 15 -87t34 -38t32 -9zM572 -5q-70 0 -106 46.5
t-36 137.5q0 92 36 138t106 46t105.5 -46t35.5 -138q0 -91 -35.5 -137.5t-105.5 -46.5zM572 45q13 0 31.5 9t33.5 38t15 87q0 59 -15 87.5t-33.5 37.5t-31.5 9t-32 -9t-34 -37.5t-15 -87.5q0 -58 15 -87t34 -38t32 -9zM139 -22l407 707h68l-407 -707h-68z" />
    </font>
</defs>
</svg>
